[Raze] Saihate no Paladin - 08 x265 10bit 1080p 120fps.mkv


File Size1.055 GB (1,132,433,356 bytes)
DownloadClickNUpload | DropAPK
DownloadGG: Part1, Part2
MultiUp: Part1
  • BdUpload
  • DownAce
  • Fichier
  • FileCloud
  • Filerio
  • FilesCdn
  • IndiShare
  • Kbagi
  • Turbobit
  • UpToBox
  • Uppit
, Part2
  • BdUpload
  • DownAce
  • Fichier
  • FileCloud
  • Filerio
  • FilesCdn
  • IndiShare
  • Kbagi
  • Turbobit
  • UpToBox
  • Uppit
, Part3
  • BdUpload
  • DownAce
  • Fichier
  • FileCloud
  • Filerio
  • FilesCdn
  • IndiShare
  • Kbagi
  • Turbobit
  • UpToBox
  • Uppit

SolidFiles: Part1, Part2, Part3
ZippyShare: Part1, Part2, Part3
HashesCRC32: F8776862, MD5: 85D9AB66285DBD5A535D1827F31D67CA, SHA1: 1F740FCB0C6948FDD2804CEDCB0C292E9922FEB0, SHA256: 8600C49D3FF94B14821531ABE887D37419E787744A1A8EBFF4178E6B3C16B685, ED2K: 85C4D5EFED2CB4653A00BD449963CB71
Screenshots
screenshotscreenshotscreenshotscreenshotscreenshot
SubtitlesAll Attachments | eng [ASS]
Additional Info
General
Unique ID                                : 164614520707058022053243462162595876764 (0x7BD79A7D14735023459DCFD8013A8F9C)
Complete name                            : [Raze] Saihate no Paladin - 08 x265 10bit 1080p 120fps.mkv
Format                                   : Matroska
Format version                           : Version 4
File size                                : 1.05 GiB
Duration                                 : 23 min 40 s
Overall bit rate                         : 6 380 kb/s
Encoded date                             : UTC 2021-12-04 18:10:16
Writing application                      : mkvmerge v59.0.0 ('Shining Star') 64-bit
Writing library                          : libebml v1.4.2 + libmatroska v1.6.4
Attachments                              : 2021-12-04@12_56_20_1310_Roboto-Medium.ttf / 2021-12-04@12_56_20_1310_Roboto-MediumItalic.ttf / 2021-12-04@12_56_20_1310_arial.ttf / 2021-12-04@12_56_20_1310_arialbd.ttf / 2021-12-04@12_56_20_1310_comic.ttf / 2021-12-04@12_56_20_1310_comicbd.ttf / 2021-12-04@12_56_20_1310_times.ttf / 2021-12-04@12_56_20_1310_timesbd.ttf / 2021-12-04@12_56_20_1310_trebuc.ttf / 2021-12-04@12_56_20_1310_trebucbd.ttf / 2021-12-04@12_56_20_1310_verdana.ttf / 2021-12-04@12_56_20_1310_verdanab.ttf
Encoding Gui                             : Hybrid 2021.07.18.1

Video
ID                                       : 1
Format                                   : HEVC
Format/Info                              : High Efficiency Video Coding
Format profile                           : Main 10@L5.2@High
Codec ID                                 : V_MPEGH/ISO/HEVC
Duration                                 : 23 min 39 s
Bit rate                                 : 6 212 kb/s
Width                                    : 1 920 pixels
Height                                   : 1 080 pixels
Display aspect ratio                     : 16:9
Frame rate mode                          : Variable
Frame rate                               : 120.000 FPS
Color space                              : YUV
Chroma subsampling                       : 4:2:0
Bit depth                                : 10 bits
Bits/(Pixel*Frame)                       : 0.025
Stream size                              : 1.03 GiB (97%)
Default                                  : Yes
Forced                                   : Yes
Color range                              : Limited
Matrix coefficients                      : BT.709

Audio
ID                                       : 2
Format                                   : AAC LC
Format/Info                              : Advanced Audio Codec Low Complexity
Codec ID                                 : A_AAC-2
Duration                                 : 23 min 40 s
Bit rate                                 : 128 kb/s
Channel(s)                               : 2 channels
Channel layout                           : L R
Sampling rate                            : 44.1 kHz
Frame rate                               : 43.066 FPS (1024 SPF)
Compression mode                         : Lossy
Stream size                              : 21.7 MiB (2%)
Language                                 : Japanese
Default                                  : Yes
Forced                                   : No

Text
ID                                       : 3
Format                                   : ASS
Codec ID                                 : S_TEXT/ASS
Codec ID/Info                            : Advanced Sub Station Alpha
Duration                                 : 23 min 37 s
Bit rate                                 : 153 b/s
Count of elements                        : 431
Compression mode                         : Lossless
Stream size                              : 26.6 KiB (0%)
Language                                 : English
Default                                  : Yes
Forced                                   : No
beta
Anime DDL+NZB mirror
Current Time: 18/08/2022 16:32



About/FAQs

Discord