File Size594.6 MB (623,484,291 bytes)
DownloadClickNUpload | DownloadGG | DropAPK
MultiUp: Part1
  • BdUpload
  • DownAce
  • Fichier
  • FileCloud
  • Filerio
  • FilesCdn
  • IndiShare
  • Kbagi
  • Turbobit
  • UpToBox
  • Uppit
, Part2
  • BdUpload
  • DownAce
  • Fichier
  • FileCloud
  • Filerio
  • FilesCdn
  • IndiShare
  • Kbagi
  • Turbobit
  • UpToBox
  • Uppit

SolidFiles: Part1, Part2
ZippyShare: Part1, Part2
HashesCRC32: B2DE2C74, MD5: 9B1D0FA4239C899D5DB477178144428C, SHA1: 04C12934875C4141F6569EA9369BF76D06AD7A14, SHA256: 3E0B1CCBBE9C9D4ACE514A5DA49E8CED17B59D6E5A266AD1C055908FD18118FF, ED2K: 418F66B1E5CADED3C4E5F9DE28AC7D2B
Screenshots
screenshotscreenshotscreenshotscreenshotscreenshot
SubtitlesAll Attachments | English subs [eng, ASS]
Additional Info
General
Unique ID                                : 115468541695253183373087929260407939393 (0x56DE6EA53864584838C8261A8A0E6141)
Complete name                            : [Raze] Night Head 2041 - 05 x265 10bit 1080p 60fps.mkv
Format                                   : Matroska
Format version                           : Version 4
File size                                : 595 MiB
Duration                                 : 22 min 55 s
Overall bit rate                         : 3 627 kb/s
Encoded date                             : UTC 2021-08-12 00:10:04
Writing application                      : mkvmerge v59.0.0 ('Shining Star') 64-bit
Writing library                          : libebml v1.4.2 + libmatroska v1.6.4
Attachments                              : Roboto-Medium.ttf / Roboto-MediumItalic.ttf / arial.ttf / arialbd.ttf / comic.ttf / comicbd.ttf / times.ttf / timesbd.ttf / trebuc.ttf / trebucbd.ttf / verdana.ttf / verdanab.ttf / 2021-08-11@18_56_46_8810_Roboto-Medium.ttf / 2021-08-11@18_56_46_8810_Roboto-MediumItalic.ttf / 2021-08-11@18_56_46_8810_arial.ttf / 2021-08-11@18_56_46_8810_arialbd.ttf / 2021-08-11@18_56_46_8810_comic.ttf / 2021-08-11@18_56_46_8810_comicbd.ttf / 2021-08-11@18_56_46_8810_times.ttf / 2021-08-11@18_56_46_8810_timesbd.ttf / 2021-08-11@18_56_46_8810_trebuc.ttf / 2021-08-11@18_56_46_8810_trebucbd.ttf / 2021-08-11@18_56_46_8810_verdana.ttf / 2021-08-11@18_56_46_8810_verdanab.ttf
Encoding Gui                             : Hybrid 2021.04.12.1

Video
ID                                       : 1
Format                                   : HEVC
Format/Info                              : High Efficiency Video Coding
Format profile                           : Main 10@L5.2@High
Codec ID                                 : V_MPEGH/ISO/HEVC
Duration                                 : 22 min 55 s
Bit rate                                 : 3 428 kb/s
Width                                    : 1 920 pixels
Height                                   : 1 080 pixels
Display aspect ratio                     : 16:9
Frame rate mode                          : Constant
Frame rate                               : 60.000 FPS
Color space                              : YUV
Chroma subsampling                       : 4:2:0
Bit depth                                : 10 bits
Bits/(Pixel*Frame)                       : 0.028
Stream size                              : 562 MiB (94%)
Default                                  : Yes
Forced                                   : Yes
Color range                              : Limited
Matrix coefficients                      : BT.709

Audio
ID                                       : 2
Format                                   : AAC LC
Format/Info                              : Advanced Audio Codec Low Complexity
Codec ID                                 : A_AAC-2
Duration                                 : 22 min 55 s
Bit rate                                 : 128 kb/s
Channel(s)                               : 2 channels
Channel layout                           : L R
Sampling rate                            : 44.1 kHz
Frame rate                               : 43.066 FPS (1024 SPF)
Compression mode                         : Lossy
Stream size                              : 21.0 MiB (4%)
Language                                 : Japanese
Default                                  : Yes
Forced                                   : No

Text
ID                                       : 3
Format                                   : ASS
Codec ID                                 : S_TEXT/ASS
Codec ID/Info                            : Advanced Sub Station Alpha
Duration                                 : 21 min 12 s
Bit rate                                 : 112 b/s
Count of elements                        : 343
Compression mode                         : Lossless
Stream size                              : 17.5 KiB (0%)
Title                                    : English subs
Language                                 : English
Default                                  : Yes
Forced                                   : No
beta
Anime DDL+NZB mirror
Current Time: 28/01/2023 13:32



About/FAQs

Discord