File Size450.6 MB (472,455,588 bytes)
DownloadAnonFiles | ClickNUpload | DropAPK | Free | MultiUp
  • BdUpload
  • DownAce
  • Fichier
  • FileCloud
  • Filerio
  • FilesCdn
  • IndiShare
  • Kbagi
  • Turbobit
  • UpToBox
  • Uppit
| SolidFiles | ZippyShare
Sendspace: Part1, Part2
HashesCRC32: BB95B0B0, MD5: 11A847D01CEBF9050450AD38BACD4AA2, SHA1: 17A961962271EB2838D5422D1CB04100CD4ED78C, SHA256: E1A9BBF49F13E5DB9E6B4EFC799B7913566C14F337E1F2598A337497807A5FCE, ED2K: 8608B30D64FF4592561C3F1C6B96B74D
Screenshots
screenshotscreenshotscreenshotscreenshotscreenshot
SubtitlesAll Attachments | eng [ASS]
Additional Info
General
Unique ID                                : 242886011402284417226284362054927071966 (0xB6BA24ED200F49E0A25FFDC15C6F3ADE)
Complete name                            : [Raze] Kyokou Suiri - 12 x264 1080p 60fps.mkv
Format                                   : Matroska
Format version                           : Version 4
File size                                : 451 MiB
Duration                                 : 23 min 45 s
Overall bit rate                         : 2 652 kb/s
Encoded date                             : UTC 2020-03-28 19:10:56
Writing application                      : mkvmerge v43.0.0 ('The Quartermaster') 64-bit
Writing library                          : libebml v1.3.10 + libmatroska v1.5.2
Attachments                              : OpenSans-Semibold.ttf / 13_32_02_8610_OpenSans-Semibold.ttf
Encoding Gui                             : Hybrid 2020.01.11.1

Video
ID                                       : 3
Format                                   : AVC
Format/Info                              : Advanced Video Codec
Format profile                           : High@L4.2
Format settings                          : CABAC / 4 Ref Frames
Format settings, CABAC                   : Yes
Format settings, ReFrames                : 4 frames
Codec ID                                 : V_MPEG4/ISO/AVC
Duration                                 : 23 min 45 s
Bit rate                                 : 2 517 kb/s
Width                                    : 1 920 pixels
Height                                   : 1 080 pixels
Display aspect ratio                     : 16:9
Frame rate mode                          : Constant
Frame rate                               : 60.000 FPS
Color space                              : YUV
Chroma subsampling                       : 4:2:0
Bit depth                                : 8 bits
Scan type                                : Progressive
Bits/(Pixel*Frame)                       : 0.020
Stream size                              : 428 MiB (95%)
Writing library                          : x264 core 159 r2991 1771b55
Encoding settings                        : cabac=1 / ref=3 / deblock=1:0:0 / analyse=0x3:0x111 / me=hex / subme=5 / psy=1 / psy_rd=1.00:0.00 / mixed_ref=0 / me_range=16 / chroma_me=1 / trellis=0 / 8x8dct=1 / cqm=0 / deadzone=21,11 / fast_pskip=0 / chroma_qp_offset=0 / threads=6 / lookahead_threads=1 / sliced_threads=0 / nr=0 / decimate=1 / interlaced=0 / bluray_compat=0 / constrained_intra=0 / bframes=3 / b_pyramid=2 / b_adapt=0 / b_bias=0 / direct=3 / weightb=1 / open_gop=0 / weightp=1 / keyint=250 / keyint_min=25 / scenecut=40 / intra_refresh=0 / rc_lookahead=40 / rc=crf / mbtree=1 / crf=17.5 / qcomp=0.50 / qpmin=0 / qpmax=69 / qpstep=4 / vbv_maxrate=62500 / vbv_bufsize=78125 / crf_max=0.0 / nal_hrd=none / filler=0 / ip_ratio=1.40 / aq=1:0.00
Default                                  : Yes
Forced                                   : Yes
Color range                              : Limited
Matrix coefficients                      : BT.709

Audio
ID                                       : 1
Format                                   : AAC LC
Format/Info                              : Advanced Audio Codec Low Complexity
Codec ID                                 : A_AAC-2
Duration                                 : 23 min 45 s
Bit rate                                 : 128 kb/s
Channel(s)                               : 2 channels
Channel layout                           : L R
Sampling rate                            : 44.1 kHz
Frame rate                               : 43.066 FPS (1024 SPF)
Compression mode                         : Lossy
Stream size                              : 21.7 MiB (5%)
Language                                 : Japanese
Default                                  : Yes
Forced                                   : No

Text
ID                                       : 2
Format                                   : ASS
Codec ID                                 : S_TEXT/ASS
Codec ID/Info                            : Advanced Sub Station Alpha
Duration                                 : 21 min 41 s
Bit rate                                 : 167 b/s
Count of elements                        : 329
Compression mode                         : Lossless
Stream size                              : 26.6 KiB (0%)
Language                                 : English
Default                                  : Yes
Forced                                   : No
beta
Anime DDL+NZB mirror
Current Time: 16/01/2021 21:40



About/FAQs