File Size550.8 MB (577,587,485 bytes)
DownloadClickNUpload | DropAPK
MultiUp: Part1
  • BdUpload
  • DownAce
  • Fichier
  • FileCloud
  • Filerio
  • FilesCdn
  • IndiShare
  • Kbagi
  • Turbobit
  • UpToBox
  • Uppit
, Part2
  • BdUpload
  • DownAce
  • Fichier
  • FileCloud
  • Filerio
  • FilesCdn
  • IndiShare
  • Kbagi
  • Turbobit
  • UpToBox
  • Uppit

SolidFiles: Part1, Part2
ZippyShare: Part1, Part2
HashesCRC32: EC64151F, MD5: ED10188786A769BD67C974F0FAC7A5C4, SHA1: FFB86DC0211139859279EDC17641C53317F34066, SHA256: DDD7AB633663139FE097710524EA1005275FAF582106DE833962F0DCD322B9CD, ED2K: 09B1CF01B8B0A8439BC0BC82E57CBFAD
Screenshots
screenshotscreenshotscreenshotscreenshotscreenshot
SubtitlesAll Attachments | English subs [eng, ASS]
Additional Info
General
Unique ID                                : 11295645676038490015957613924123694665 (0x87F76545E6F7A00946BAB9106785649)
Complete name                            : [Raze] Isekai Maou to Shoukan Shoujo no Dorei Majutsu S2 - 10 x265 10bit 1080p 60fps.mkv
Format                                   : Matroska
Format version                           : Version 4
File size                                : 551 MiB
Duration                                 : 23 min 50 s
Overall bit rate                         : 3 231 kb/s
Encoded date                             : UTC 2021-06-10 19:25:20
Writing application                      : mkvmerge v51.0.0 ('I Wish') 64-bit
Writing library                          : libebml v1.4.0 + libmatroska v1.6.2
Attachments                              : Roboto-Medium.ttf / Roboto-MediumItalic.ttf / arial.ttf / arialbd.ttf / comic.ttf / comicbd.ttf / times.ttf / timesbd.ttf / trebuc.ttf / trebucbd.ttf / verdana.ttf / verdanab.ttf / 2021-06-10@14_10_31_5610_Roboto-Medium.ttf / 2021-06-10@14_10_31_5610_Roboto-MediumItalic.ttf / 2021-06-10@14_10_31_5610_arial.ttf / 2021-06-10@14_10_31_5610_arialbd.ttf / 2021-06-10@14_10_31_5610_comic.ttf / 2021-06-10@14_10_31_5610_comicbd.ttf / 2021-06-10@14_10_31_5610_times.ttf / 2021-06-10@14_10_31_5610_timesbd.ttf / 2021-06-10@14_10_31_5610_trebuc.ttf / 2021-06-10@14_10_31_5610_trebucbd.ttf / 2021-06-10@14_10_31_5610_verdana.ttf / 2021-06-10@14_10_31_5610_verdanab.ttf
Encoding Gui                             : Hybrid 2021.04.12.1

Video
ID                                       : 3
Format                                   : HEVC
Format/Info                              : High Efficiency Video Coding
Format profile                           : Main 10@L5.2@High
Codec ID                                 : V_MPEGH/ISO/HEVC
Duration                                 : 23 min 49 s
Bit rate                                 : 3 034 kb/s
Width                                    : 1 920 pixels
Height                                   : 1 080 pixels
Display aspect ratio                     : 16:9
Frame rate mode                          : Constant
Frame rate                               : 60.000 FPS
Color space                              : YUV
Chroma subsampling                       : 4:2:0
Bit depth                                : 10 bits
Bits/(Pixel*Frame)                       : 0.024
Stream size                              : 517 MiB (94%)
Default                                  : Yes
Forced                                   : Yes
Color range                              : Limited
Matrix coefficients                      : BT.709

Audio
ID                                       : 1
Format                                   : AAC LC
Format/Info                              : Advanced Audio Codec Low Complexity
Codec ID                                 : A_AAC-2
Duration                                 : 23 min 50 s
Bit rate                                 : 128 kb/s
Channel(s)                               : 2 channels
Channel layout                           : L R
Sampling rate                            : 44.1 kHz
Frame rate                               : 43.066 FPS (1024 SPF)
Compression mode                         : Lossy
Stream size                              : 21.8 MiB (4%)
Language                                 : Japanese
Default                                  : Yes
Forced                                   : No

Text
ID                                       : 2
Format                                   : ASS
Codec ID                                 : S_TEXT/ASS
Codec ID/Info                            : Advanced Sub Station Alpha
Duration                                 : 23 min 45 s
Bit rate                                 : 133 b/s
Count of elements                        : 442
Compression mode                         : Lossless
Stream size                              : 23.2 KiB (0%)
Title                                    : English subs
Language                                 : English
Default                                  : Yes
Forced                                   : No
beta
Anime DDL+NZB mirror
Current Time: 30/07/2021 01:31



About/FAQs