[Raze] Heion Sedai no Idaten-tachi - 09 x265 10bit 1080p 60fps.mkv


File Size519.4 MB (544,657,617 bytes)
DownloadClickNUpload | DownloadGG | DropAPK
MultiUp: Part1
  • BdUpload
  • DownAce
  • Fichier
  • FileCloud
  • Filerio
  • FilesCdn
  • IndiShare
  • Kbagi
  • Turbobit
  • UpToBox
  • Uppit
, Part2
  • BdUpload
  • DownAce
  • Fichier
  • FileCloud
  • Filerio
  • FilesCdn
  • IndiShare
  • Kbagi
  • Turbobit
  • UpToBox
  • Uppit

SolidFiles: Part1, Part2
ZippyShare: Part1, Part2
HashesCRC32: 8EC636D9, MD5: 3B0898B8EA3DEBFB68AEDB17BA04732A, SHA1: E7DC7B23571C1DC3C54977289E10142D37B983FF, SHA256: CFCBE2A34EBE5E0925AF792B80D9A547377DFFC5C3A23FAB6760EEA109C4484B, ED2K: 176226A113E00F594C41DE78FE79C9B5
Screenshots
screenshotscreenshotscreenshotscreenshotscreenshot
SubtitlesAll Attachments | eng [ASS]
Additional Info
General
Unique ID                                : 265422438240142357551293441243980838315 (0xC7AE808E565F1CB6D93BC29CC14935AB)
Complete name                            : [Raze] Heion Sedai no Idaten-tachi - 09 x265 10bit 1080p 60fps.mkv
Format                                   : Matroska
Format version                           : Version 4
File size                                : 519 MiB
Duration                                 : 22 min 55 s
Overall bit rate                         : 3 169 kb/s
Encoded date                             : UTC 2021-09-14 23:18:39
Writing application                      : mkvmerge v59.0.0 ('Shining Star') 64-bit
Writing library                          : libebml v1.4.2 + libmatroska v1.6.4
Attachments                              : 2021-09-14@18_12_45_1910_Roboto-Medium.ttf / 2021-09-14@18_12_45_1910_Roboto-MediumItalic.ttf / 2021-09-14@18_12_45_1910_arial.ttf / 2021-09-14@18_12_45_1910_arialbd.ttf / 2021-09-14@18_12_45_1910_comic.ttf / 2021-09-14@18_12_45_1910_comicbd.ttf / 2021-09-14@18_12_45_1910_times.ttf / 2021-09-14@18_12_45_1910_timesbd.ttf / 2021-09-14@18_12_45_1910_trebuc.ttf / 2021-09-14@18_12_45_1910_trebucbd.ttf / 2021-09-14@18_12_45_1910_verdana.ttf / 2021-09-14@18_12_45_1910_verdanab.ttf
Encoding Gui                             : Hybrid 2021.07.18.1

Video
ID                                       : 1
Format                                   : HEVC
Format/Info                              : High Efficiency Video Coding
Format profile                           : Main 10@L5.2@High
Codec ID                                 : V_MPEGH/ISO/HEVC
Duration                                 : 22 min 54 s
Bit rate                                 : 3 003 kb/s
Width                                    : 1 920 pixels
Height                                   : 1 080 pixels
Display aspect ratio                     : 16:9
Frame rate mode                          : Constant
Frame rate                               : 60.000 FPS
Color space                              : YUV
Chroma subsampling                       : 4:2:0
Bit depth                                : 10 bits
Bits/(Pixel*Frame)                       : 0.024
Stream size                              : 492 MiB (95%)
Default                                  : Yes
Forced                                   : Yes
Color range                              : Limited
Matrix coefficients                      : BT.709

Audio
ID                                       : 2
Format                                   : AAC LC
Format/Info                              : Advanced Audio Codec Low Complexity
Codec ID                                 : A_AAC-2
Duration                                 : 22 min 55 s
Bit rate                                 : 128 kb/s
Channel(s)                               : 2 channels
Channel layout                           : L R
Sampling rate                            : 44.1 kHz
Frame rate                               : 43.066 FPS (1024 SPF)
Compression mode                         : Lossy
Stream size                              : 21.0 MiB (4%)
Language                                 : Japanese
Default                                  : Yes
Forced                                   : No

Text
ID                                       : 3
Format                                   : ASS
Codec ID                                 : S_TEXT/ASS
Codec ID/Info                            : Advanced Sub Station Alpha
Duration                                 : 21 min 5 s
Bit rate                                 : 184 b/s
Count of elements                        : 386
Compression mode                         : Lossless
Stream size                              : 28.5 KiB (0%)
Language                                 : English
Default                                  : Yes
Forced                                   : No
beta
Anime DDL+NZB mirror
Current Time: 19/10/2021 12:59



About/FAQs

Discord