[R1] Jujutsu Kaisen Henshū 02 - Apprentissage de l'occulte - 1080p.MULTI.x264.mkv


File Size1.500 GB (1,610,886,643 bytes)
DownloadClickNUpload
DownloadGG: Part1, Part2
KrakenFiles: Part1, Part2
MultiUp: Part1
  • BdUpload
  • DownAce
  • Fichier
  • FileCloud
  • Filerio
  • FilesCdn
  • IndiShare
  • Kbagi
  • Turbobit
  • UpToBox
  • Uppit
, Part2
  • BdUpload
  • DownAce
  • Fichier
  • FileCloud
  • Filerio
  • FilesCdn
  • IndiShare
  • Kbagi
  • Turbobit
  • UpToBox
  • Uppit
, Part3
  • BdUpload
  • DownAce
  • Fichier
  • FileCloud
  • Filerio
  • FilesCdn
  • IndiShare
  • Kbagi
  • Turbobit
  • UpToBox
  • Uppit
, Part4
  • BdUpload
  • DownAce
  • Fichier
  • FileCloud
  • Filerio
  • FilesCdn
  • IndiShare
  • Kbagi
  • Turbobit
  • UpToBox
  • Uppit

ZippyShare: Part1, Part2, Part3, Part4
HashesCRC32: 3319FE2E, MD5: E2AA1DFDC9F99BDD358167BAE08E8435, SHA1: 7AEEEEC2EAE1B9BCC5FD2999400376BA68FD6493, SHA256: 9B8B3FF63B8F56CABC95AAC81CB3ED6D6F770449B0E0FBB703E722B5ED07EFF7, ED2K: 9A9EA2A2448E1271FA25BB6A783637C1
Screenshots
screenshotscreenshotscreenshotscreenshotscreenshot
SubtitlesAll Attachments | Français (VOSTFR) [ASS] [fre, ASS], Français (VOSTFR) [SRT] [fre, SRT], Français (VF) [ASS] [fre, ASS], Français (VF) [SRT] [fre, SRT], English [ASS] [eng, ASS], English [SRT] [eng, SRT], Español [ASS] [spa, ASS], Español [SRT] [spa, SRT], Karaoke [ASS] [jpn, ASS]
Additional Info
General
Unique ID                                : 285879669799780668182401996069509044810 (0xD7126BF1A3FFDC125E198CC36AC89A4A)
Complete name                            : [R1] Jujutsu Kaisen Henshū 02 - Apprentissage de l'occulte - 1080p.MULTI.x264.mkv
Format                                   : Matroska
Format version                           : Version 4
File size                                : 1.50 GiB
Duration                                 : 1 h 9 min
Overall bit rate                         : 3 110 kb/s
Encoded date                             : UTC 2023-02-16 17:56:55
Writing application                      : mkvmerge v51.0.0 ('I Wish') 64-bit
Writing library                          : libebml v1.4.0 + libmatroska v1.6.2
Cover                                    : Yes
Attachments                              : cover.png / arialbd.ttf / arialbi.ttf / ariali.ttf / Artifice-Regular.otf / Aver Bold.ttf / Aver.ttf / Baqa.otf / BarlowCondensed-BoldItalic.ttf / Cabin-Bold.ttf / Cabin-Bold-Italic.ttf / Cabin-Regular.ttf / Chewy.ttf / KG-Shadow-of-the-Day.ttf / KozGoPr6N-Bold.OTF / KozGoPr6N-Heavy.otf / Kuro Diamonds - Jujutsu OP.otf / Orbitron-VariableFont_wght.ttf / Ragnar.ttf / SkipStd-B-En.otf / SourceSansPro-Bold.otf / times.ttf / timesbd.ttf / timesbi.ttf / timesi.ttf / Alegreya-Bold.otf / Amble-Bold.ttf / Arial Unicode MS.ttf / arial.ttf

Video
ID                                       : 1
Format                                   : AVC
Format/Info                              : Advanced Video Codec
Format profile                           : High@L4.1
Format settings                          : CABAC / 4 Ref Frames
Format settings, CABAC                   : Yes
Format settings, Reference frames        : 4 frames
Codec ID                                 : V_MPEG4/ISO/AVC
Duration                                 : 1 h 9 min
Bit rate                                 : 2 446 kb/s
Width                                    : 1 920 pixels
Height                                   : 1 080 pixels
Display aspect ratio                     : 16:9
Frame rate mode                          : Constant
Frame rate                               : 23.976 (24000/1001) FPS
Color space                              : YUV
Chroma subsampling                       : 4:2:0
Bit depth                                : 8 bits
Scan type                                : Progressive
Bits/(Pixel*Frame)                       : 0.049
Stream size                              : 1.18 GiB (79%)
Title                                    : Henshū 2 - 1080p.MULTI.x264
Writing library                          : x264 core 164 r3099 e067ab0
Encoding settings                        : cabac=1 / ref=4 / deblock=1:1:1 / analyse=0x3:0x133 / me=umh / subme=10 / psy=1 / psy_rd=0.40:0.00 / mixed_ref=1 / me_range=24 / chroma_me=1 / trellis=2 / 8x8dct=1 / cqm=0 / deadzone=21,11 / fast_pskip=1 / chroma_qp_offset=-2 / threads=6 / lookahead_threads=1 / sliced_threads=0 / nr=0 / decimate=1 / interlaced=0 / bluray_compat=0 / constrained_intra=0 / bframes=10 / b_pyramid=2 / b_adapt=2 / b_bias=0 / direct=3 / weightb=1 / open_gop=0 / weightp=2 / keyint=250 / keyint_min=23 / scenecut=40 / intra_refresh=0 / rc_lookahead=60 / rc=crf / mbtree=1 / crf=18.0 / qcomp=0.60 / qpmin=0 / qpmax=69 / qpstep=4 / ip_ratio=1.40 / aq=1:0.60
Default                                  : Yes
Forced                                   : No
Color range                              : Full
Matrix coefficients                      : BT.709

Audio #1
ID                                       : 2
Format                                   : AAC LC
Format/Info                              : Advanced Audio Codec Low Complexity
Codec ID                                 : A_AAC-2
Duration                                 : 1 h 9 min
Bit rate                                 : 265 kb/s
Channel(s)                               : 2 channels
Channel layout                           : L R
Sampling rate                            : 48.0 kHz
Frame rate                               : 46.875 FPS (1024 SPF)
Compression mode                         : Lossy
Stream size                              : 133 MiB (9%)
Title                                    : 日本語
Language                                 : Japanese
Default                                  : Yes
Forced                                   : No

Audio #2
ID                                       : 3
Format                                   : AAC LC
Format/Info                              : Advanced Audio Codec Low Complexity
Codec ID                                 : A_AAC-2
Duration                                 : 1 h 9 min
Bit rate                                 : 272 kb/s
Channel(s)                               : 2 channels
Channel layout                           : L R
Sampling rate                            : 48.0 kHz
Frame rate                               : 46.875 FPS (1024 SPF)
Compression mode                         : Lossy
Stream size                              : 134 MiB (9%)
Title                                    : Français
Language                                 : French
Default                                  : No
Forced                                   : No

Text #1
ID                                       : 4
Format                                   : ASS
Codec ID                                 : S_TEXT/ASS
Codec ID/Info                            : Advanced Sub Station Alpha
Duration                                 : 1 h 7 min
Bit rate                                 : 230 b/s
Count of elements                        : 1338
Compression mode                         : Lossless
Stream size                              : 113 KiB (0%)
Title                                    : Français (VOSTFR) [ASS]
Language                                 : French
Default                                  : Yes
Forced                                   : No

Text #2
ID                                       : 5
Format                                   : UTF-8
Codec ID                                 : S_TEXT/UTF8
Codec ID/Info                            : UTF-8 Plain Text
Duration                                 : 1 h 7 min
Bit rate                                 : 77 b/s
Count of elements                        : 1073
Stream size                              : 38.1 KiB (0%)
Title                                    : Français (VOSTFR) [SRT]
Language                                 : French
Default                                  : No
Forced                                   : No

Text #3
ID                                       : 6
Format                                   : ASS
Codec ID                                 : S_TEXT/ASS
Codec ID/Info                            : Advanced Sub Station Alpha
Duration                                 : 1 h 6 min
Bit rate                                 : 89 b/s
Count of elements                        : 285
Compression mode                         : Lossless
Stream size                              : 43.4 KiB (0%)
Title                                    : Français (VF) [ASS]
Language                                 : French
Default                                  : No
Forced                                   : No

Text #4
ID                                       : 7
Format                                   : UTF-8
Codec ID                                 : S_TEXT/UTF8
Codec ID/Info                            : UTF-8 Plain Text
Duration                                 : 1 h 6 min
Bit rate                                 : 1 b/s
Count of elements                        : 20
Stream size                              : 734 Bytes (0%)
Title                                    : Français (VF) [SRT]
Language                                 : French
Default                                  : No
Forced                                   : No

Text #5
ID                                       : 8
Format                                   : ASS
Codec ID                                 : S_TEXT/ASS
Codec ID/Info                            : Advanced Sub Station Alpha
Duration                                 : 1 h 7 min
Bit rate                                 : 140 b/s
Count of elements                        : 1085
Compression mode                         : Lossless
Stream size                              : 69.0 KiB (0%)
Title                                    : English [ASS]
Language                                 : English
Default                                  : No
Forced                                   : No

Text #6
ID                                       : 9
Format                                   : UTF-8
Codec ID                                 : S_TEXT/UTF8
Codec ID/Info                            : UTF-8 Plain Text
Duration                                 : 1 h 7 min
Bit rate                                 : 76 b/s
Count of elements                        : 1080
Stream size                              : 37.6 KiB (0%)
Title                                    : English [SRT]
Language                                 : English
Default                                  : No
Forced                                   : No

Text #7
ID                                       : 10
Format                                   : ASS
Codec ID                                 : S_TEXT/ASS
Codec ID/Info                            : Advanced Sub Station Alpha
Duration                                 : 1 h 7 min
Bit rate                                 : 137 b/s
Count of elements                        : 1008
Compression mode                         : Lossless
Stream size                              : 67.6 KiB (0%)
Title                                    : Español [ASS]
Language                                 : Spanish
Default                                  : No
Forced                                   : No

Text #8
ID                                       : 11
Format                                   : UTF-8
Codec ID                                 : S_TEXT/UTF8
Codec ID/Info                            : UTF-8 Plain Text
Duration                                 : 1 h 7 min
Bit rate                                 : 70 b/s
Count of elements                        : 1003
Stream size                              : 34.8 KiB (0%)
Title                                    : Español [SRT]
Language                                 : Spanish
Default                                  : No
Forced                                   : No

Text #9
ID                                       : 12
Format                                   : ASS
Codec ID                                 : S_TEXT/ASS
Codec ID/Info                            : Advanced Sub Station Alpha
Duration                                 : 1 h 8 min
Bit rate                                 : 11.2 kb/s
Count of elements                        : 29119
Compression mode                         : Lossless
Stream size                              : 5.50 MiB (0%)
Title                                    : Karaoke [ASS]
Language                                 : Japanese
Default                                  : No
Forced                                   : No

Menu
00:00:00.000                             : :FanKai
00:00:10.000                             : :Opening 1 - Kaikai Kitan (Eve)
00:01:40.000                             : :Henshū 2
01:07:34.000                             : :Ending 1 - Lost in Paradise (ALI feat. AKLO)
beta
Anime DDL+NZB mirror
Current Time: 20/07/2024 04:19



About/FAQs

Discord