File Size12.36 MB (12,960,341 bytes)
DownloadClickNUpload | Go4Up | Jheberg | MultiUp
  • ClickNupload
  • Fichier
  • Filerio
  • Free
  • Fufox
  • HugeFiles
  • Mightyupload
  • ToutBox
  • Turbobit
  • UpToBox
  • Uplea
  • UploadBaz
  • Uploadable
  • Uploaded
  • Uppit
  • Userscloud
  • ZippyShare
| OpenLoad | Sendspace | SolidFiles
Encrypted DownloadDirect
Password:
HashesCRC32: 94D083C0, MD5: D04558C4DF3460986EC4EDC4EEEDA8E3, SHA1: E45F91702FD4B0A50141FD561A82A9921B661F79, SHA256: 94BC3433D24C069713C70AA461CC92AAFBD04B36D6A39CE8F7E53654B20ABA34, ED2K: 4E2BF514FF3484D13D38F4F96E7761CA
Screenshots
screenshot
SubtitlesAll Attachments | und [ASS]
Additional Info
General
Unique ID                                : 186459832528090590780609474106610017390 (0x8C46DB846850EE01B05201E8BBB9E46E)
Complete name                            : [Quality] Tokyo Ghoul - NCOP (MS Paint 720p).mkv
Format                                   : Matroska
Format version                           : Version 4 / Version 2
File size                                : 12.4 MiB
Duration                                 : 1 min 29 s
Overall bit rate                         : 1 156 kb/s
Encoded date                             : UTC 2017-09-12 19:53:51
Writing application                      : mkvmerge v8.4.0 ('A better way to fly') 32bit
Writing library                          : libebml v1.3.1 + libmatroska v1.4.2
Attachments                              : comic.ttf

Video
ID                                       : 1
Format                                   : AVC
Format/Info                              : Advanced Video Codec
Format profile                           : Main@L3.1
Format settings, CABAC                   : Yes
Format settings, ReFrames                : 3 frames
Codec ID                                 : V_MPEG4/ISO/AVC
Duration                                 : 1 min 28 s
Bit rate                                 : 789 kb/s
Width                                    : 1 280 pixels
Height                                   : 720 pixels
Display aspect ratio                     : 16:9
Frame rate mode                          : Constant
Frame rate                               : 25.000 FPS
Color space                              : YUV
Chroma subsampling                       : 4:2:0
Bit depth                                : 8 bits
Scan type                                : Progressive
Bits/(Pixel*Frame)                       : 0.034
Stream size                              : 8.28 MiB (67%)
Default                                  : Yes
Forced                                   : No
Color range                              : Limited
Color primaries                          : BT.709
Transfer characteristics                 : BT.709
Matrix coefficients                      : BT.709

Audio
ID                                       : 2
Format                                   : AAC
Format/Info                              : Advanced Audio Codec
Format profile                           : LC
Codec ID                                 : A_AAC
Duration                                 : 1 min 29 s
Bit rate                                 : 288 kb/s
Channel(s)                               : 2 channels
Channel positions                        : Front: L R
Sampling rate                            : 48.0 kHz
Frame rate                               : 46.875 FPS (1024 spf)
Compression mode                         : Lossy
Delay relative to video                  : 9 ms
Stream size                              : 3.02 MiB (24%)
Default                                  : Yes
Forced                                   : No

Text
ID                                       : 3
Format                                   : ASS
Codec ID                                 : S_TEXT/ASS
Codec ID/Info                            : Advanced Sub Station Alpha
Duration                                 : 1 min 24 s
Bit rate                                 : 76.9 kb/s
Count of elements                        : 189
Compression mode                         : Lossless
Stream size                              : 798 KiB (6%)
Default                                  : Yes
Forced                                   : No
beta
Anime DDL+NZB mirror
Current Time: 13/11/2019 22:45



About/FAQs