File Size69.90 MB (73,290,828 bytes)
DownloadAnonFiles | ClickNUpload | DropAPK | Free | MultiUp
  • BdUpload
  • DownAce
  • Fichier
  • FileCloud
  • Filerio
  • FilesCdn
  • IndiShare
  • Kbagi
  • Turbobit
  • UpToBox
  • Uppit
| SolidFiles | ZippyShare
HashesCRC32: 3813FF4E, MD5: DB03156419A6D113C2EDE8CCA0F6D419, SHA1: 72FA923B51E2C5433447D53AA8CD171BC7A9D413, SHA256: C9FEE7D65563A7A93BF9206F39FB07EBE4BA545A55F31E206F5D3660267985D7, ED2K: A1AD37408605C930816E76CD62AF768B
Screenshots
screenshotscreenshotscreenshotscreenshotscreenshot
SubtitlesAll Attachments | English subs [eng, ASS]
Additional Info
General
Unique ID                                : 204517883937380134799663631481849954181 (0x99DCB630E85B1E913E4EAC2FEE4ABF85)
Complete name                            : [QaS] Full Dive - 01 [540p HEVC x265 10bit Opus].mkv
Format                                   : Matroska
Format version                           : Version 4
File size                                : 69.9 MiB
Duration                                 : 23 min 50 s
Overall bit rate                         : 410 kb/s
Encoded date                             : UTC 2021-04-07 16:19:50
Writing application                      : mkvmerge v55.0.0 ('Waiting For Space') 64-bit
Writing library                          : libebml v1.4.2 + libmatroska v1.6.4
Attachments                              : Roboto-Medium.ttf / Roboto-MediumItalic.ttf

Video
ID                                       : 1
Format                                   : HEVC
Format/Info                              : High Efficiency Video Coding
Format profile                           : Main 10@L3@Main
Codec ID                                 : V_MPEGH/ISO/HEVC
Duration                                 : 23 min 50 s
Bit rate                                 : 312 kb/s
Width                                    : 960 pixels
Height                                   : 540 pixels
Display aspect ratio                     : 16:9
Frame rate mode                          : Constant
Frame rate                               : 23.976 (24000/1001) FPS
Color space                              : YUV
Chroma subsampling                       : 4:2:0
Bit depth                                : 10 bits
Bits/(Pixel*Frame)                       : 0.025
Stream size                              : 53.2 MiB (76%)
Default                                  : Yes
Forced                                   : No

Audio
ID                                       : 2
Format                                   : Opus
Codec ID                                 : A_OPUS
Duration                                 : 23 min 50 s
Bit rate                                 : 91.7 kb/s
Channel(s)                               : 2 channels
Channel layout                           : L R
Sampling rate                            : 48.0 kHz
Frame rate                               : 50.001 FPS (960 SPF)
Compression mode                         : Lossy
Delay relative to video                  : 18 ms
Stream size                              : 15.6 MiB (22%)
Writing library                          : Lavc58.135.100 libopus
Language                                 : Japanese
Default                                  : No
Forced                                   : No

Text
ID                                       : 3
Format                                   : ASS
Codec ID                                 : S_TEXT/ASS
Codec ID/Info                            : Advanced Sub Station Alpha
Duration                                 : 23 min 28 s
Bit rate                                 : 128 b/s
Count of elements                        : 412
Compression mode                         : Lossless
Stream size                              : 22.1 KiB (0%)
Title                                    : English subs
Language                                 : English
Default                                  : Yes
Forced                                   : No
beta
Anime DDL+NZB mirror
Current Time: 12/05/2021 18:26



About/FAQs