File Size745.3 MB (781,459,024 bytes)
DownloadClickNUpload | DropAPK | Free
MultiUp: Part1
  • BdUpload
  • DownAce
  • Fichier
  • FileCloud
  • Filerio
  • FilesCdn
  • IndiShare
  • Kbagi
  • Turbobit
  • UpToBox
  • Uppit
, Part2
  • BdUpload
  • DownAce
  • Fichier
  • FileCloud
  • Filerio
  • FilesCdn
  • IndiShare
  • Kbagi
  • Turbobit
  • UpToBox
  • Uppit

Sendspace: Part1, Part2, Part3
SolidFiles: Part1, Part2
ZippyShare: Part1, Part2
HashesCRC32: 36E07AA2, MD5: 4D8F0DE2CF2E06E86CF19B666CB59CEF, SHA1: 6AD4DCFE9743F2B375CE4226B96E5119D2FC408E, SHA256: 01821F3E12EB3F133C48D4B378CA4C1E69FE522DF4A47A5CAC02EBF9BDD6D081, ED2K: 8FBA774403141DE281CBC64FDBB170A8
Screenshots
screenshotscreenshotscreenshotscreenshotscreenshot
SubtitlesAll Attachments | eng [ASS], eng [ASS]
Additional Info
General
Unique ID                                : 159434056336175610809198046904617433631 (0x77F1E1E01213AA3AC9CF9D5849DA7A1F)
Complete name                            : [PrinceOtaku] Welcome to Demon School! Iruma-kun - 14 [720p] [Dual Audio].mkv
Format                                   : Matroska
Format version                           : Version 4
File size                                : 745 MiB
Duration                                 : 24 min 30 s
Overall bit rate                         : 4 253 kb/s
Encoded date                             : UTC 2020-03-21 19:12:35
Writing application                      : mkvmerge v30.0.0 ('Interstellar') 32-bit
Writing library                          : libebml v1.3.6 + libmatroska v1.4.9

Video
ID                                       : 1
Format                                   : AVC
Format/Info                              : Advanced Video Codec
Format profile                           : High@L4
Format settings                          : CABAC / 6 Ref Frames
Format settings, CABAC                   : Yes
Format settings, ReFrames                : 6 frames
Codec ID                                 : V_MPEG4/ISO/AVC
Duration                                 : 24 min 30 s
Bit rate                                 : 4 000 kb/s
Width                                    : 1 280 pixels
Height                                   : 720 pixels
Display aspect ratio                     : 16:9
Frame rate mode                          : Constant
Frame rate                               : 23.976 (24000/1001) FPS
Color space                              : YUV
Chroma subsampling                       : 4:2:0
Bit depth                                : 8 bits
Scan type                                : Progressive
Bits/(Pixel*Frame)                       : 0.181
Stream size                              : 700 MiB (94%)
Writing library                          : x264 core 142
Encoding settings                        : cabac=1 / ref=6 / deblock=1:1:1 / analyse=0x3:0x113 / me=umh / subme=8 / psy=1 / psy_rd=0.40:0.00 / mixed_ref=1 / me_range=16 / chroma_me=1 / trellis=1 / 8x8dct=1 / cqm=0 / deadzone=21,11 / fast_pskip=1 / chroma_qp_offset=-2 / threads=10 / lookahead_threads=1 / sliced_threads=0 / nr=0 / decimate=1 / interlaced=0 / bluray_compat=0 / constrained_intra=0 / bframes=0 / weightp=2 / keyint=96 / keyint_min=48 / scenecut=40 / intra_refresh=0 / rc_lookahead=48 / rc=2pass / mbtree=1 / bitrate=4000 / ratetol=1.0 / qcomp=0.60 / qpmin=0 / qpmax=69 / qpstep=4 / cplxblur=20.0 / qblur=0.5 / vbv_maxrate=6000 / vbv_bufsize=9000 / nal_hrd=none / filler=0 / ip_ratio=1.40 / aq=1:0.60
Default                                  : Yes
Forced                                   : No

Audio #1
ID                                       : 2
Format                                   : AAC LC
Format/Info                              : Advanced Audio Codec Low Complexity
Codec ID                                 : A_AAC-2
Duration                                 : 24 min 30 s
Bit rate                                 : 128 kb/s
Channel(s)                               : 2 channels
Channel layout                           : L R
Sampling rate                            : 44.1 kHz
Frame rate                               : 43.066 FPS (1024 SPF)
Compression mode                         : Lossy
Stream size                              : 22.4 MiB (3%)
Language                                 : English
Default                                  : Yes
Forced                                   : No

Audio #2
ID                                       : 3
Format                                   : AAC LC
Format/Info                              : Advanced Audio Codec Low Complexity
Codec ID                                 : A_AAC-2
Duration                                 : 24 min 30 s
Bit rate                                 : 128 kb/s
Channel(s)                               : 2 channels
Channel layout                           : L R
Sampling rate                            : 44.1 kHz
Frame rate                               : 43.066 FPS (1024 SPF)
Compression mode                         : Lossy
Stream size                              : 22.4 MiB (3%)
Language                                 : Japanese
Default                                  : No
Forced                                   : No

Text #1
ID                                       : 4
Format                                   : ASS
Codec ID                                 : S_TEXT/ASS
Codec ID/Info                            : Advanced Sub Station Alpha
Duration                                 : 23 min 14 s
Bit rate                                 : 9 b/s
Count of elements                        : 22
Compression mode                         : Lossless
Stream size                              : 1.54 KiB (0%)
Language                                 : English
Default                                  : Yes
Forced                                   : No

Text #2
ID                                       : 5
Format                                   : ASS
Codec ID                                 : S_TEXT/ASS
Codec ID/Info                            : Advanced Sub Station Alpha
Duration                                 : 24 min 23 s
Bit rate                                 : 212 b/s
Count of elements                        : 488
Compression mode                         : Lossless
Stream size                              : 38.0 KiB (0%)
Language                                 : English
Default                                  : No
Forced                                   : No
beta
Anime DDL+NZB mirror
Current Time: 21/01/2021 08:04



About/FAQs