[PokeArchive] Pocket Monsters (2019) - Ep080 [AMZN.1080P.v2021.09.RUS.ENG.Subtitles].mkv


File Size997.2 MB (1,045,660,576 bytes)
DownloadClickNUpload | DownloadGG | DropAPK
MultiUp: Part1
  • BdUpload
  • DownAce
  • Fichier
  • FileCloud
  • Filerio
  • FilesCdn
  • IndiShare
  • Kbagi
  • Turbobit
  • UpToBox
  • Uppit
, Part2
  • BdUpload
  • DownAce
  • Fichier
  • FileCloud
  • Filerio
  • FilesCdn
  • IndiShare
  • Kbagi
  • Turbobit
  • UpToBox
  • Uppit

SolidFiles: Part1, Part2
ZippyShare: Part1, Part2
HashesCRC32: 3F0484E8, MD5: 9AEBF0E3B4E2B20CCD89402FCC763F04, SHA1: 71C9C4469235A1BBFE25A8118E6565EE390AED16, SHA256: CD148EAFC26425BC57F64FC6EE1AC71DA0832B25A3EDF41E8A4C228F33439362, ED2K: 52AF0F213F7ABD1B789E9FB188B2DE3D
Screenshots
screenshotscreenshotscreenshotscreenshotscreenshot
SubtitlesAll Attachments | Русские субтитры от Pokefans Community [rus, ASS], English subtitles by Some-Stuffs [eng, ASS]
Additional Info
General
Unique ID                                : 248557592814452864975741194934905648438 (0xBAFE737AACB526A2CC4082179A3AB536)
Complete name                            : [PokeArchive] Pocket Monsters (2019) - Ep080 [AMZN.1080P.v2021.09.RUS.ENG.Subtitles].mkv
Format                                   : Matroska
Format version                           : Version 4
File size                                : 997 MiB
Duration                                 : 23 min 35 s
Overall bit rate                         : 5 908 kb/s
Encoded date                             : UTC 2021-09-12 18:28:36
Writing application                      : mkvmerge v56.0.0 ('Strasbourg / St. Denis') 64-bit
Writing library                          : libebml v1.4.2 + libmatroska v1.6.4
Attachments                              : candarab.ttf / candaraz.ttf / FOT-Slump Std DB.otf / Grinched_2.0_DEMO.otf / HiraKakuProN-W6_EDIT.ttf / HummingMod_nojapanese.otf / PMLogo.ttf

Video
ID                                       : 1
Format                                   : AVC
Format/Info                              : Advanced Video Codec
Format profile                           : High@L4
Format settings                          : CABAC / 4 Ref Frames
Format settings, CABAC                   : Yes
Format settings, ReFrames                : 4 frames
Codec ID                                 : V_MPEG4/ISO/AVC
Duration                                 : 23 min 35 s
Bit rate mode                            : Constant
Bit rate                                 : 5 615 kb/s
Nominal bit rate                         : 10 000 kb/s
Width                                    : 1 920 pixels
Height                                   : 1 080 pixels
Display aspect ratio                     : 16:9
Frame rate mode                          : Constant
Frame rate                               : 23.976 (24000/1001) FPS
Color space                              : YUV
Chroma subsampling                       : 4:2:0
Bit depth                                : 8 bits
Scan type                                : Progressive
Bits/(Pixel*Frame)                       : 0.113
Stream size                              : 948 MiB (95%)
Title                                    : Amazon WEB-DL (JPN)
Language                                 : Japanese
Default                                  : Yes
Forced                                   : No
Color range                              : Limited
Color primaries                          : BT.709
Transfer characteristics                 : BT.709
Matrix coefficients                      : BT.709

Audio
ID                                       : 2
Format                                   : E-AC-3
Format/Info                              : Enhanced AC-3
Commercial name                          : Dolby Digital Plus
Codec ID                                 : A_EAC3
Duration                                 : 23 min 35 s
Bit rate mode                            : Constant
Bit rate                                 : 224 kb/s
Channel(s)                               : 2 channels
Channel layout                           : L R
Sampling rate                            : 48.0 kHz
Frame rate                               : 31.250 FPS (1536 SPF)
Compression mode                         : Lossy
Stream size                              : 37.8 MiB (4%)
Title                                    : Amazon WEB-DL (JPN)
Language                                 : Japanese
Service kind                             : Complete Main
Default                                  : Yes
Forced                                   : No

Text #1
ID                                       : 3
Format                                   : ASS
Codec ID                                 : S_TEXT/ASS
Codec ID/Info                            : Advanced Sub Station Alpha
Duration                                 : 23 min 33 s
Bit rate                                 : 444 b/s
Count of elements                        : 649
Compression mode                         : Lossless
Stream size                              : 76.6 KiB (0%)
Title                                    : Русские субтитры от Pokefans Community
Language                                 : Russian
Default                                  : Yes
Forced                                   : No

Text #2
ID                                       : 4
Format                                   : ASS
Codec ID                                 : S_TEXT/ASS
Codec ID/Info                            : Advanced Sub Station Alpha
Duration                                 : 23 min 33 s
Bit rate                                 : 614 b/s
Count of elements                        : 853
Compression mode                         : Lossless
Stream size                              : 106 KiB (0%)
Title                                    : English subtitles by Some-Stuffs
Language                                 : English
Default                                  : No
Forced                                   : No

Menu
00:00:00.000                             : :Part A
00:03:02.682                             : :Opening
00:04:30.770                             : :Part B
00:12:31.501                             : :Part C
00:21:44.512                             : :Ending
00:23:05.509                             : :Preview
beta
Anime DDL+NZB mirror
Current Time: 02/12/2021 09:13



About/FAQs

Discord