[PM]Pocket_Monsters_-_Advanced_Generation_-_287_AG011_-_Graena_and_Pochiena!_The_Mystery_of_Evolution!![H264_AC3_DVDSUB][E18408A9].mkv


File Size256.5 MB (268,966,870 bytes)
DownloadGo4Up | Jheberg | MultiUp | Sendspace | SolidFiles
HashesCRC32: E18408A9, MD5: 930C1E698C35198ED0ADEB601D37F35D, SHA1: DF4E0BEFE67EA418C59E593CCFF3C2B3FF2DD5E6, SHA256: 1A408130E6CF560AAD2196DB299403EC1693A139E775A44A92ED529D69B1CD8E, ED2K: BDB0B849DCEB98E112033BBF4BFFE22C
Screenshots
screenshotscreenshotscreenshotscreenshotscreenshot
Additional Info
General
Unique ID                                : 196461206845312718463051653691802759496 (0x93CD0D57909CD9248936890BF1D9B148)
Complete name                            : [PM]Pocket_Monsters_-_Advanced_Generation_-_287_AG011_-_Graena_and_Pochiena!_The_Mystery_of_Evolution!![H264_AC3_DVDSUB][E18408A9].mkv
Format                                   : Matroska
Format version                           : Version 1
File size                                : 257 MiB
Duration                                 : 24mn 34s
Overall bit rate                         : 1 459 Kbps
Encoded date                             : UTC 2015-12-20 02:08:17
Writing application                      : mkvmerge v2.4.2 ('Oh My God') built on Jan 18 2009 17:30:28
Writing library                          : libebml v0.7.7 + libmatroska v0.8.1

Video
ID                                       : 1
Format                                   : AVC
Format/Info                              : Advanced Video Codec
Format profile                           : High@L3.1
Format settings, CABAC                   : Yes
Format settings, ReFrames                : 8 frames
Codec ID                                 : V_MPEG4/ISO/AVC
Duration                                 : 24mn 34s
Bit rate                                 : 1 238 Kbps
Width                                    : 640 pixels
Height                                   : 480 pixels
Display aspect ratio                     : 4:3
Frame rate mode                          : Constant
Frame rate                               : 23.976 fps
Color space                              : YUV
Chroma subsampling                       : 4:2:0
Bit depth                                : 8 bits
Scan type                                : Progressive
Bits/(Pixel*Frame)                       : 0.168
Stream size                              : 218 MiB (85%)
Title                                    : Video
Writing library                          : x264 core 133 r2334 a3ac64b
Encoding settings                        : cabac=1 / ref=8 / deblock=1:0:0 / analyse=0x3:0x133 / me=umh / subme=7 / psy=1 / psy_rd=1.00:0.00 / mixed_ref=1 / me_range=16 / chroma_me=1 / trellis=1 / 8x8dct=1 / cqm=0 / deadzone=21,11 / fast_pskip=0 / chroma_qp_offset=-2 / threads=12 / lookahead_threads=2 / sliced_threads=0 / nr=0 / decimate=1 / interlaced=0 / bluray_compat=0 / constrained_intra=0 / bframes=3 / b_pyramid=2 / b_adapt=1 / b_bias=0 / direct=3 / weightb=1 / open_gop=0 / weightp=2 / keyint=250 / keyint_min=23 / scenecut=40 / intra_refresh=0 / rc_lookahead=40 / rc=crf / mbtree=1 / crf=18.0 / qcomp=0.60 / qpmin=0 / qpmax=69 / qpstep=4 / ip_ratio=1.40 / aq=1:1.00
Default                                  : Yes
Forced                                   : No

Audio
ID                                       : 2
Format                                   : AC-3
Format/Info                              : Audio Coding 3
Mode extension                           : CM (complete main)
Format settings, Endianness              : Big
Codec ID                                 : A_AC3
Duration                                 : 24mn 34s
Bit rate mode                            : Constant
Bit rate                                 : 192 Kbps
Channel(s)                               : 2 channels
Channel positions                        : Front: L R
Sampling rate                            : 48.0 KHz
Bit depth                                : 16 bits
Compression mode                         : Lossy
Stream size                              : 33.8 MiB (13%)
Title                                    : Audio
Language                                 : Japanese
Default                                  : Yes
Forced                                   : No
beta
Anime DDL+NZB mirror
Current Time: 24/07/2021 23:51



About/FAQs