File Size1.581 GB (1,697,991,165 bytes)
DownloadClickNUpload
DownloadGG: Part1, Part2
KrakenFiles: Part1, Part2
MultiUp: Part1
  • BdUpload
  • DownAce
  • Fichier
  • FileCloud
  • Filerio
  • FilesCdn
  • IndiShare
  • Kbagi
  • Turbobit
  • UpToBox
  • Uppit
, Part2
  • BdUpload
  • DownAce
  • Fichier
  • FileCloud
  • Filerio
  • FilesCdn
  • IndiShare
  • Kbagi
  • Turbobit
  • UpToBox
  • Uppit
, Part3
  • BdUpload
  • DownAce
  • Fichier
  • FileCloud
  • Filerio
  • FilesCdn
  • IndiShare
  • Kbagi
  • Turbobit
  • UpToBox
  • Uppit
, Part4
  • BdUpload
  • DownAce
  • Fichier
  • FileCloud
  • Filerio
  • FilesCdn
  • IndiShare
  • Kbagi
  • Turbobit
  • UpToBox
  • Uppit

ZippyShare: Part1, Part2, Part3, Part4
HashesCRC32: B0107394, MD5: 910C317FE33D83088E00B4483B6E4A97, SHA1: 3B6D447E14FE620B579A97A9B8DCDE7D3471BA28, SHA256: 5E8CEDFB36FA8BAE51427E9CCB8F760ED57A67982556211FB9360C0BAA4C076A, ED2K: C8D658FF661B9CAEBCDBE90C660656FA
Screenshots
screenshotscreenshotscreenshotscreenshotscreenshot
SubtitlesAll Attachments | eng [ASS]
Additional Info
General
Unique ID                                : 71290816730503972820029903276295072680 (0x35A21CA384FFE8F0A38E2DA16C002BA8)
Complete name                            : [PM]Pocket Monsters Movie 20 - I Choose You![H264 720P][B0107394].mkv
Format                                   : Matroska
Format version                           : Version 4
File size                                : 1.58 GiB
Duration                                 : 1 h 37 min
Overall bit rate                         : 2 334 kb/s
Encoded date                             : UTC 2023-01-03 02:58:23
Writing application                      : mkvmerge v71.0.0 ('Altitude') 64-bit
Writing library                          : libebml v1.4.4 + libmatroska v1.7.1
Attachments                              : Miu_Regular.ttf / MiuMacron.ttf

Video
ID                                       : 1
Format                                   : AVC
Format/Info                              : Advanced Video Codec
Format profile                           : High@L5
Format settings                          : CABAC / 10 Ref Frames
Format settings, CABAC                   : Yes
Format settings, Reference frames        : 10 frames
Codec ID                                 : V_MPEG4/ISO/AVC
Duration                                 : 1 h 37 min
Bit rate                                 : 2 082 kb/s
Width                                    : 1 280 pixels
Height                                   : 720 pixels
Display aspect ratio                     : 16:9
Frame rate mode                          : Constant
Frame rate                               : 23.976 (24000/1001) FPS
Color space                              : YUV
Chroma subsampling                       : 4:2:0
Bit depth                                : 8 bits
Scan type                                : Progressive
Bits/(Pixel*Frame)                       : 0.094
Stream size                              : 1.41 GiB (89%)
Writing library                          : x264 core 164 r3094+13 7816202 [Mod by Patman]
Encoding settings                        : cabac=1 / ref=10 / deblock=1:1:1 / analyse=0x3:0x113 / me=hex / subme=8 / psy=1 / psy_rd=0.40:0.00 / mixed_ref=1 / me_range=16 / chroma_me=1 / trellis=2 / 8x8dct=1 / cqm=0 / deadzone=21,11 / fast_pskip=1 / chroma_qp_offset=-2 / threads=22 / lookahead_threads=3 / sliced_threads=0 / nr=0 / decimate=1 / interlaced=0 / bluray_compat=0 / constrained_intra=0 / bframes=5 / b_pyramid=2 / b_adapt=1 / b_bias=0 / direct=3 / weightb=1 / open_gop=0 / weightp=2 / keyint=250 / keyint_min=23 / scenecut=40 / intra_refresh=0 / rc_lookahead=50 / rc=crf / mbtree=1 / crf=18.0 / qcomp=0.60 / qpmin=0 / qpmax=69 / qpstep=4 / ip_ratio=1.40 / aq=1:0.60
Default                                  : Yes
Forced                                   : No
Color range                              : Limited
Color primaries                          : BT.709
Transfer characteristics                 : BT.709
Matrix coefficients                      : BT.709

Audio
ID                                       : 2
Format                                   : AAC LC
Format/Info                              : Advanced Audio Codec Low Complexity
Codec ID                                 : A_AAC-2
Duration                                 : 1 h 37 min
Bit rate                                 : 249 kb/s
Channel(s)                               : 2 channels
Channel layout                           : L R
Sampling rate                            : 48.0 kHz
Frame rate                               : 46.875 FPS (1024 SPF)
Compression mode                         : Lossy
Delay relative to video                  : 20 ms
Stream size                              : 173 MiB (11%)
Title                                    : Stereo
Language                                 : Japanese
Default                                  : Yes
Forced                                   : No

Text
ID                                       : 3
Format                                   : ASS
Codec ID                                 : S_TEXT/ASS
Codec ID/Info                            : Advanced Sub Station Alpha
Duration                                 : 1 h 31 min
Bit rate                                 : 75 b/s
Count of elements                        : 1196
Compression mode                         : Lossless
Stream size                              : 50.4 KiB (0%)
Language                                 : English
Default                                  : Yes
Forced                                   : No

Menu
00:00:00.000                             : en:01. Your Beginner Pokémon
00:06:17.293                             : en:02. Saying Goodbye to Masara Town
00:12:53.773                             : en:03. Opening
00:15:16.081                             : en:04. Making Friends
00:24:30.927                             : en:05. The Stray Pokémon
00:39:16.645                             : en:06. A World Without Pokémon
00:57:25.775                             : en:07. Bye-Bye Butterfree
01:03:53.830                             : en:08. Seeking Houou
01:11:18.983                             : en:09. Marshadow's Rage
01:18:29.121                             : en:10. I'm going to be the world's greatest Pokémon Master!
01:30:56.451                             : en:11. Pocket Monsters
01:32:21.536                             : en:12. Ending
beta
Anime DDL+NZB mirror
Current Time: 14/07/2024 16:05



About/FAQs

Discord