File Size13.31 MB (13,961,019 bytes)
DownloadClickNUpload | DailyUploads | DownloadGG | GoFile | KrakenFiles | MdiaLoad | MultiUp
  • BdUpload
  • DownAce
  • Fichier
  • FileCloud
  • Filerio
  • FilesCdn
  • IndiShare
  • Kbagi
  • Turbobit
  • UpToBox
  • Uppit
| Uppit
HashesCRC32: D87A3C17, MD5: 883BA64E1930E5E9F8BCAF1E6DB60C48, SHA1: CFD2B9716F9322E7A53407BF54754F41EE17E15A, SHA256: 1F847B63D6FF259AEF066980A103F858D3EC3965CE95059E3D39044C7FBAB0FC, ED2K: 51DFF9FBF8217C7FCCC2B70F99F392BC
Screenshots
screenshot
SubtitlesAll Attachments | eng [ASS]
Additional Info
General
Unique ID                                : 161659832526454218496009551841552641361 (0x799E8D1D31F4449838BA6D9B86B22D51)
Complete name                            : [Piyoko] Sousou no Frieren - Marumaru no Mahou (Mini Anime) - 10 [1080p] [D87A3C17].mkv
Format                                   : Matroska
Format version                           : Version 4
File size                                : 13.3 MiB
Duration                                 : 1 min 18 s
Overall bit rate                         : 1 429 kb/s
Frame rate                               : 23.976 FPS
Encoded date                             : 2024-02-19 12:19:00 UTC
Writing application                      : mkvmerge v82.0 ('I'm The President') 64-bit
Writing library                          : libebml v1.4.5 + libmatroska v1.7.1
Attachments                              : arial.ttf / arialbd.ttf / DkCrayonCrumble-ddll.ttf / BRLNSR.TTF

Video
ID                                       : 1
Format                                   : AVC
Format/Info                              : Advanced Video Codec
Format profile                           : High@L4
Format settings                          : CABAC / 3 Ref Frames
Format settings, CABAC                   : Yes
Format settings, Reference frames        : 3 frames
Codec ID                                 : V_MPEG4/ISO/AVC
Duration                                 : 1 min 18 s
Bit rate                                 : 1 019 kb/s
Width                                    : 1 920 pixels
Height                                   : 1 080 pixels
Display aspect ratio                     : 16:9
Frame rate mode                          : Constant
Frame rate                               : 23.976 (24000/1001) FPS
Color space                              : YUV
Chroma subsampling                       : 4:2:0
Bit depth                                : 8 bits
Scan type                                : Progressive
Bits/(Pixel*Frame)                       : 0.020
Stream size                              : 9.48 MiB (71%)
Default                                  : Yes
Forced                                   : No
Color range                              : Limited
Color primaries                          : BT.709
Transfer characteristics                 : BT.709
Matrix coefficients                      : BT.709

Audio
ID                                       : 2
Format                                   : AAC LC
Format/Info                              : Advanced Audio Codec Low Complexity
Codec ID                                 : A_AAC-2
Duration                                 : 1 min 18 s
Bit rate                                 : 128 kb/s
Channel(s)                               : 2 channels
Channel layout                           : L R
Sampling rate                            : 44.1 kHz
Frame rate                               : 43.066 FPS (1024 SPF)
Compression mode                         : Lossy
Stream size                              : 1.19 MiB (9%)
Language                                 : Japanese
Default                                  : Yes
Forced                                   : No

Text
ID                                       : 3
Format                                   : ASS
Codec ID                                 : S_TEXT/ASS
Codec ID/Info                            : Advanced Sub Station Alpha
Duration                                 : 1 min 4 s
Bit rate                                 : 212 b/s
Frame rate                               : 0.405 FPS
Count of elements                        : 26
Compression mode                         : Lossless
Stream size                              : 1.67 KiB (0%)
Language                                 : English
Default                                  : Yes
Forced                                   : No
beta
Anime DDL+NZB mirror
Current Time: 23/05/2024 05:27



About/FAQs

Discord