[PinkBatman] Jujutsu Kaisen - s01e02 [1080p] [Multiple Subtitle] [Dual Audio].mkv


File Size1.383 GB (1,484,569,997 bytes)
DownloadAnonFiles | ClickNUpload | DropAPK
Free: Part1, Part2
MultiUp: Part1
  • BdUpload
  • DownAce
  • Fichier
  • FileCloud
  • Filerio
  • FilesCdn
  • IndiShare
  • Kbagi
  • Turbobit
  • UpToBox
  • Uppit
, Part2
  • BdUpload
  • DownAce
  • Fichier
  • FileCloud
  • Filerio
  • FilesCdn
  • IndiShare
  • Kbagi
  • Turbobit
  • UpToBox
  • Uppit
, Part3
  • BdUpload
  • DownAce
  • Fichier
  • FileCloud
  • Filerio
  • FilesCdn
  • IndiShare
  • Kbagi
  • Turbobit
  • UpToBox
  • Uppit

SolidFiles: Part1, Part2, Part3
ZippyShare: Part1, Part2, Part3
HashesCRC32: 832CE6F6, MD5: F11522F95C0CFCEAC02A1BBC2A8DCEC8, SHA1: B978228E59C9FC2567E98733117B8743F80D4309, SHA256: DDAD10F973AD6E7BCD435ED400A2A7BA992F70C5EC800C62DD676FF2D5EE37B2, ED2K: D5F7FEB005268C7F4063462098D449E9
Screenshots
screenshotscreenshotscreenshotscreenshotscreenshot
SubtitlesAll Attachments | English(US) [eng, ASS], Arabic [ara, ASS], Francais(France) [fre, ASS], Deutsch [ger, ASS], Italiano [ita, ASS], Espanol(Espana) [spa, ASS], Espanol [spa, ASS], Portugues(Brasil) [por, ASS], Russian [rus, ASS]
Additional Info
General
Unique ID                                : 81937401896222830572974942508390321984 (0x3DA491D08041365BBE6414D36D388F40)
Complete name                            : [PinkBatman] Jujutsu Kaisen - s01e02 [1080p] [Multiple Subtitle] [Dual Audio].mkv
Format                                   : Matroska
Format version                           : Version 4
File size                                : 1.38 GiB
Duration                                 : 23 min 54 s
Overall bit rate                         : 8 276 kb/s
Encoded date                             : UTC 2021-01-13 20:39:23
Writing application                      : mkvmerge v52.0.0 ('Secret For The Mad') 64-bit
Writing library                          : libebml v1.4.1 + libmatroska v1.6.2
Attachments                              : andalemo.ttf / Arial.ttf / arialbd.ttf / arialbi.ttf / ariali.ttf / ariblk.TTF / comic.ttf / comicbd.ttf / cour.ttf / courbd.ttf / courbi.ttf / couri.ttf / georgia.ttf / georgiab.ttf / georgiai.ttf / georgiaz.ttf / impact.ttf / Tahoma.ttf / times.ttf / timesbd.ttf / timesbi.ttf / timesi.ttf / trebuc.ttf / trebucbd.ttf / trebucbi.ttf / trebucit.ttf / AdobeArabic-Bold.otf

Video
ID                                       : 1
Format                                   : AVC
Format/Info                              : Advanced Video Codec
Format profile                           : High@L4
Format settings                          : CABAC / 4 Ref Frames
Format settings, CABAC                   : Yes
Format settings, ReFrames                : 4 frames
Codec ID                                 : V_MPEG4/ISO/AVC
Duration                                 : 23 min 54 s
Bit rate                                 : 8 000 kb/s
Width                                    : 1 920 pixels
Height                                   : 1 080 pixels
Display aspect ratio                     : 16:9
Frame rate mode                          : Constant
Frame rate                               : 23.976 (24000/1001) FPS
Color space                              : YUV
Chroma subsampling                       : 4:2:0
Bit depth                                : 8 bits
Scan type                                : Progressive
Bits/(Pixel*Frame)                       : 0.161
Stream size                              : 1.33 GiB (96%)
Writing library                          : x264 core 142
Encoding settings                        : cabac=1 / ref=4 / deblock=1:1:1 / analyse=0x3:0x113 / me=umh / subme=8 / psy=1 / psy_rd=0.40:0.00 / mixed_ref=1 / me_range=16 / chroma_me=1 / trellis=1 / 8x8dct=1 / cqm=0 / deadzone=21,11 / fast_pskip=1 / chroma_qp_offset=-2 / threads=12 / lookahead_threads=2 / sliced_threads=0 / nr=0 / decimate=1 / interlaced=0 / bluray_compat=0 / constrained_intra=0 / bframes=0 / weightp=2 / keyint=96 / keyint_min=48 / scenecut=40 / intra_refresh=0 / rc_lookahead=48 / rc=2pass / mbtree=1 / bitrate=8000 / ratetol=1.0 / qcomp=0.60 / qpmin=0 / qpmax=69 / qpstep=4 / cplxblur=20.0 / qblur=0.5 / vbv_maxrate=12000 / vbv_bufsize=18000 / nal_hrd=none / filler=0 / ip_ratio=1.40 / aq=1:0.60
Language                                 : Japanese
Default                                  : Yes
Forced                                   : No

Audio #1
ID                                       : 2
Format                                   : AAC LC
Format/Info                              : Advanced Audio Codec Low Complexity
Codec ID                                 : A_AAC-2
Duration                                 : 23 min 54 s
Bit rate                                 : 128 kb/s
Channel(s)                               : 2 channels
Channel layout                           : L R
Sampling rate                            : 44.1 kHz
Frame rate                               : 43.066 FPS (1024 SPF)
Compression mode                         : Lossy
Stream size                              : 21.9 MiB (2%)
Title                                    : Japanese
Language                                 : Japanese
Default                                  : Yes
Forced                                   : No

Audio #2
ID                                       : 12
Format                                   : AAC LC
Format/Info                              : Advanced Audio Codec Low Complexity
Codec ID                                 : A_AAC-2
Duration                                 : 23 min 54 s
Bit rate                                 : 128 kb/s
Channel(s)                               : 2 channels
Channel layout                           : L R
Sampling rate                            : 44.1 kHz
Frame rate                               : 43.066 FPS (1024 SPF)
Compression mode                         : Lossy
Stream size                              : 21.9 MiB (2%)
Title                                    : English
Language                                 : English
Default                                  : No
Forced                                   : No

Text #1
ID                                       : 3
Format                                   : ASS
Codec ID                                 : S_TEXT/ASS
Codec ID/Info                            : Advanced Sub Station Alpha
Duration                                 : 23 min 53 s
Bit rate                                 : 142 b/s
Count of elements                        : 367
Compression mode                         : Lossless
Stream size                              : 24.9 KiB (0%)
Title                                    : English(US)
Language                                 : English
Default                                  : Yes
Forced                                   : No

Text #2
ID                                       : 4
Format                                   : ASS
Codec ID                                 : S_TEXT/ASS
Codec ID/Info                            : Advanced Sub Station Alpha
Duration                                 : 23 min 53 s
Bit rate                                 : 169 b/s
Count of elements                        : 367
Compression mode                         : Lossless
Stream size                              : 29.6 KiB (0%)
Title                                    : Arabic
Language                                 : Arabic
Default                                  : No
Forced                                   : No

Text #3
ID                                       : 5
Format                                   : ASS
Codec ID                                 : S_TEXT/ASS
Codec ID/Info                            : Advanced Sub Station Alpha
Duration                                 : 23 min 53 s
Bit rate                                 : 138 b/s
Count of elements                        : 346
Compression mode                         : Lossless
Stream size                              : 24.2 KiB (0%)
Title                                    : Francais(France)
Language                                 : French
Default                                  : No
Forced                                   : No

Text #4
ID                                       : 6
Format                                   : ASS
Codec ID                                 : S_TEXT/ASS
Codec ID/Info                            : Advanced Sub Station Alpha
Duration                                 : 23 min 53 s
Bit rate                                 : 152 b/s
Count of elements                        : 377
Compression mode                         : Lossless
Stream size                              : 26.7 KiB (0%)
Title                                    : Deutsch
Language                                 : German
Default                                  : No
Forced                                   : No

Text #5
ID                                       : 7
Format                                   : ASS
Codec ID                                 : S_TEXT/ASS
Codec ID/Info                            : Advanced Sub Station Alpha
Duration                                 : 23 min 53 s
Bit rate                                 : 170 b/s
Count of elements                        : 389
Compression mode                         : Lossless
Stream size                              : 29.8 KiB (0%)
Title                                    : Italiano
Language                                 : Italian
Default                                  : No
Forced                                   : No

Text #6
ID                                       : 8
Format                                   : ASS
Codec ID                                 : S_TEXT/ASS
Codec ID/Info                            : Advanced Sub Station Alpha
Duration                                 : 23 min 53 s
Bit rate                                 : 137 b/s
Count of elements                        : 341
Compression mode                         : Lossless
Stream size                              : 24.1 KiB (0%)
Title                                    : Espanol(Espana)
Language                                 : Spanish
Default                                  : No
Forced                                   : No

Text #7
ID                                       : 9
Format                                   : ASS
Codec ID                                 : S_TEXT/ASS
Codec ID/Info                            : Advanced Sub Station Alpha
Duration                                 : 23 min 53 s
Bit rate                                 : 138 b/s
Count of elements                        : 341
Compression mode                         : Lossless
Stream size                              : 24.2 KiB (0%)
Title                                    : Espanol
Language                                 : Spanish
Default                                  : No
Forced                                   : No

Text #8
ID                                       : 10
Format                                   : ASS
Codec ID                                 : S_TEXT/ASS
Codec ID/Info                            : Advanced Sub Station Alpha
Duration                                 : 23 min 53 s
Bit rate                                 : 149 b/s
Count of elements                        : 390
Compression mode                         : Lossless
Stream size                              : 26.1 KiB (0%)
Title                                    : Portugues(Brasil)
Language                                 : Portuguese
Default                                  : No
Forced                                   : No

Text #9
ID                                       : 11
Format                                   : ASS
Codec ID                                 : S_TEXT/ASS
Codec ID/Info                            : Advanced Sub Station Alpha
Duration                                 : 23 min 53 s
Bit rate                                 : 184 b/s
Count of elements                        : 386
Compression mode                         : Lossless
Stream size                              : 32.3 KiB (0%)
Title                                    : Russian
Language                                 : Russian
Default                                  : No
Forced                                   : No
beta
Anime DDL+NZB mirror
Current Time: 05/03/2021 07:14



About/FAQs