[PickleSammiches] Doraemon (2005) - 102 - The Day Doraemon is Reborn (2007 Birthday Special) [720p x264 AAC][v1][FA1EC35F].mkv


File Size549.5 MB (576,157,097 bytes)
DownloadGo4Up | Jheberg | MultiUp | OpenLoad | UsersCloud
Sendspace: Part1, Part2
SolidFiles: Part1, Part2
HashesCRC32: FA1EC35F, MD5: ED07943D25B93CC55AC0C3E486C371D2, SHA1: 1215A37702C3922594450117E2217943D1BBD88F, SHA256: 9D36E11453279C2CEAA4F5A5BE8861E66729646DA764B5E306125538F5A48EF5, ED2K: 8F41C824E672A1EBE5010F8EF504B889
Screenshots
screenshotscreenshotscreenshotscreenshotscreenshot
SubtitlesAll Attachments | ASS [eng, ASS]
Additional Info
General
Unique ID                                : 206337760159705671933754853179110616049 (0x9B3B35042C7D0C149999440F9C4A6BF1)
Complete name                            : [PickleSammiches] Doraemon (2005) - 102 - The Day Doraemon is Reborn (2007 Birthday Special) [720p x264 AAC][v1][FA1EC35F].mkv
Format                                   : Matroska
Format version                           : Version 4 / Version 2
File size                                : 549 MiB
Duration                                 : 40 min 59 s
Overall bit rate                         : 1 874 kb/s
Movie name                               : The Day Doraemon is Reborn
Encoded date                             : UTC 2017-01-24 23:44:34
Writing application                      : mkvmerge v9.8.0 ('Kuglblids') 64bit
Writing library                          : libebml v1.3.4 + libmatroska v1.4.5
Attachments                              : ForgetMeNotHMK.ttf / arial.ttf / arialbd.ttf / ARIALUNI.TTF / calibrib.ttf / calibriz.ttf

Video
ID                                       : 1
Format                                   : AVC
Format/Info                              : Advanced Video Codec
Format profile                           : High 10@L5
Format settings, CABAC                   : Yes
Format settings, ReFrames                : 16 frames
Codec ID                                 : V_MPEG4/ISO/AVC
Duration                                 : 40 min 59 s
Bit rate                                 : 1 546 kb/s
Width                                    : 1 280 pixels
Height                                   : 720 pixels
Display aspect ratio                     : 16:9
Frame rate mode                          : Constant
Frame rate                               : 23.976 (24000/1001) FPS
Color space                              : YUV
Chroma subsampling                       : 4:2:0
Bit depth                                : 10 bits
Scan type                                : Progressive
Bits/(Pixel*Frame)                       : 0.070
Stream size                              : 453 MiB (83%)
Writing library                          : x264 core 148 r2638 7599210
Encoding settings                        : cabac=1 / ref=16 / deblock=1:0:0 / analyse=0x3:0x133 / me=umh / subme=10 / psy=1 / psy_rd=0.40:0.00 / mixed_ref=1 / me_range=24 / chroma_me=1 / trellis=2 / 8x8dct=1 / cqm=0 / deadzone=21,11 / fast_pskip=0 / chroma_qp_offset=-4 / threads=8 / lookahead_threads=2 / sliced_threads=0 / nr=0 / decimate=1 / interlaced=0 / bluray_compat=0 / constrained_intra=0 / bframes=16 / b_pyramid=2 / b_adapt=2 / b_bias=0 / direct=1 / weightb=1 / open_gop=0 / weightp=2 / keyint=230 / keyint_min=23 / scenecut=40 / intra_refresh=0 / rc_lookahead=60 / rc=crf / mbtree=1 / crf=16.0 / qcomp=0.60 / qpmin=0 / qpmax=81 / qpstep=4 / ip_ratio=1.40 / aq=1:0.80
Default                                  : Yes
Forced                                   : No
Color range                              : Limited
Color primaries                          : BT.709
Transfer characteristics                 : BT.709
Matrix coefficients                      : BT.709

Audio
ID                                       : 2
Format                                   : AAC
Format/Info                              : Advanced Audio Codec
Format profile                           : LC
Codec ID                                 : A_AAC
Duration                                 : 40 min 59 s
Bit rate                                 : 236 kb/s
Channel(s)                               : 2 channels
Channel positions                        : Front: L R
Sampling rate                            : 48.0 kHz
Frame rate                               : 46.875 FPS (1024 spf)
Compression mode                         : Lossy
Delay relative to video                  : 20 ms
Stream size                              : 69.1 MiB (13%)
Language                                 : Japanese
Default                                  : Yes
Forced                                   : No

Text
ID                                       : 3
Format                                   : ASS
Codec ID                                 : S_TEXT/ASS
Codec ID/Info                            : Advanced Sub Station Alpha
Duration                                 : 40 min 53 s
Bit rate                                 : 146 b/s
Count of elements                        : 739
Compression mode                         : Lossless
Stream size                              : 43.9 KiB (0%)
Title                                    : ASS
Language                                 : English
Default                                  : Yes
Forced                                   : Yes

Menu
00:00:00.000                             : ja:Title Card - The Day Doraemon is Reborn
00:00:08.000                             : ja:Chapter 1 - Prelude & the Abduction
00:11:59.000                             : ja:Opening - mao - Yume wo Kanaete Doraemon
00:13:29.000                             : ja:Chapter 2 - The Search
00:22:51.000                             : ja:Chapter 3 - Confrontation
00:32:16.000                             : ja:Chapter 4 - Resolution
beta
Anime DDL+NZB mirror
Current Time: 13/06/2024 06:19



About/FAQs

Discord