[PickleSammiches] Doraemon (2005) - 062 - Doraemon Goes Back to the Future... [720p x264 AAC][v1][0D5E3983].mkv


File Size491.3 MB (515,167,821 bytes)
DownloadClickNUpload | Go4Up | Jheberg | MultiUp | OpenLoad | SolidFiles
Sendspace: Part1, Part2
HashesCRC32: 0D5E3983, MD5: 01CC3E04863C777C6DC46BA4273818A1, SHA1: 2066981B2577B08340D040D040E70A584ED69DB0, SHA256: 430C0DC2834C239EFB69E3E7F1D27DF3ADD6B2AC35A797DE9845BECBD7837C96, ED2K: 8DD6A41CA419EA170048FC593406408B
Screenshots
screenshotscreenshotscreenshotscreenshotscreenshot
SubtitlesAll Attachments | ASS [eng, ASS]
Additional Info
General
Unique ID                                : 200467941589962361443866765097225373732 (0x96D0B89DED5DA389B2BA92111F7F4824)
Complete name                            : [PickleSammiches] Doraemon (2005) - 062 - Doraemon Goes Back to the Future... [720p x264 AAC][v1][0D5E3983].mkv
Format                                   : Matroska
Format version                           : Version 4 / Version 2
File size                                : 491 MiB
Duration                                 : 39 min 9 s
Overall bit rate                         : 1 754 kb/s
Movie name                               : Doraemon Goes Back to the Future...
Encoded date                             : UTC 2017-04-09 11:23:25
Writing application                      : mkvmerge v10.0.0 ('To Drown In You') 64bit
Writing library                          : libebml v1.3.4 + libmatroska v1.4.5
Attachments                              : arialbd.ttf / calibrib.ttf / calibriz.ttf

Video
ID                                       : 1
Format                                   : AVC
Format/Info                              : Advanced Video Codec
Format profile                           : High 10@L5
Format settings, CABAC                   : Yes
Format settings, ReFrames                : 16 frames
Codec ID                                 : V_MPEG4/ISO/AVC
Duration                                 : 39 min 9 s
Bit rate                                 : 1 524 kb/s
Width                                    : 1 280 pixels
Height                                   : 720 pixels
Display aspect ratio                     : 16:9
Frame rate mode                          : Constant
Frame rate                               : 23.976 (24000/1001) FPS
Color space                              : YUV
Chroma subsampling                       : 4:2:0
Bit depth                                : 10 bits
Scan type                                : Progressive
Bits/(Pixel*Frame)                       : 0.069
Stream size                              : 427 MiB (87%)
Writing library                          : x264 core 148 r2744 b97ae06
Encoding settings                        : cabac=1 / ref=16 / deblock=1:0:0 / analyse=0x3:0x133 / me=umh / subme=10 / psy=1 / psy_rd=0.40:0.00 / mixed_ref=1 / me_range=24 / chroma_me=1 / trellis=2 / 8x8dct=1 / cqm=0 / deadzone=21,11 / fast_pskip=0 / chroma_qp_offset=-4 / threads=12 / lookahead_threads=3 / sliced_threads=0 / nr=0 / decimate=1 / interlaced=0 / bluray_compat=0 / constrained_intra=0 / bframes=16 / b_pyramid=2 / b_adapt=2 / b_bias=0 / direct=1 / weightb=1 / open_gop=0 / weightp=2 / keyint=230 / keyint_min=23 / scenecut=40 / intra_refresh=0 / rc_lookahead=60 / rc=crf / mbtree=1 / crf=16.0 / qcomp=0.60 / qpmin=0 / qpmax=81 / qpstep=4 / ip_ratio=1.40 / aq=1:0.80
Default                                  : Yes
Forced                                   : No
Color range                              : Limited
Color primaries                          : BT.709
Transfer characteristics                 : BT.709
Matrix coefficients                      : BT.709

Audio
ID                                       : 2
Format                                   : AAC
Format/Info                              : Advanced Audio Codec
Format profile                           : LC
Codec ID                                 : A_AAC
Duration                                 : 39 min 8 s
Bit rate                                 : 217 kb/s
Channel(s)                               : 2 channels
Channel positions                        : Front: L R
Sampling rate                            : 48.0 kHz
Frame rate                               : 46.875 FPS (1024 spf)
Compression mode                         : Lossy
Delay relative to video                  : 20 ms
Stream size                              : 60.7 MiB (12%)
Language                                 : Japanese
Default                                  : Yes
Forced                                   : No

Text
ID                                       : 3
Format                                   : ASS
Codec ID                                 : S_TEXT/ASS
Codec ID/Info                            : Advanced Sub Station Alpha
Duration                                 : 38 min 57 s
Bit rate                                 : 118 b/s
Count of elements                        : 643
Compression mode                         : Lossless
Stream size                              : 33.9 KiB (0%)
Title                                    : ASS
Language                                 : English
Default                                  : Yes
Forced                                   : Yes

Menu
00:00:00.000                             : :Opening - Rimi Natsukawa - Hagushichao
00:01:09.069                             : :Title Card - Doraemon Goes Back to the Future...
00:01:17.077                             : :Part 1 - Prelude & Dorami Visits for the First Time
00:10:45.019                             : :Part 2 - Doraemon Goes Back to the Future
00:20:09.083                             : :Part 3 - Getting over the Hump
00:29:05.077                             : :Part 4 - Reconciliation
beta
Anime DDL+NZB mirror
Current Time: 20/07/2024 03:02



About/FAQs

Discord