[Phrenapates] Blue Archive The Animation - 10 [AMZN 1080p].mkv


File Size717.7 MB (752,516,149 bytes)
DownloadClickNUpload | DailyUploads | GoFile | KrakenFiles | MdiaLoad
MultiUp: Part1
  • BdUpload
  • DownAce
  • Fichier
  • FileCloud
  • Filerio
  • FilesCdn
  • IndiShare
  • Kbagi
  • Turbobit
  • UpToBox
  • Uppit
, Part2
  • BdUpload
  • DownAce
  • Fichier
  • FileCloud
  • Filerio
  • FilesCdn
  • IndiShare
  • Kbagi
  • Turbobit
  • UpToBox
  • Uppit
HashesCRC32: F963D4E6, MD5: 37689FBC1D5123735EDE0823B0B35609, SHA1: 23E78FAA68AB28848A72BC558E8DDF667298CC2A, SHA256: A386C1A33298552E1FEEAEFF57C87825B0562F33E016737ACF829B939791FBF2, ED2K: E90348EB10067E8EF5060A3A799B8CE5
Screenshots
screenshotscreenshotscreenshotscreenshotscreenshot
SubtitlesAll Attachments | eng [ASS]
Additional Info
General
Unique ID                                : 307558110993041601843920984316723520480 (0xE761899D895C3A1A617D3E6D4EEEE3E0)
Complete name                            : [Phrenapates] Blue Archive The Animation - 10 [AMZN 1080p].mkv
Format                                   : Matroska
Format version                           : Version 4
File size                                : 718 MiB
Duration                                 : 23 min 41 s
Overall bit rate                         : 4 236 kb/s
Frame rate                               : 23.976 FPS
Encoded date                             : 2024-06-10 22:12:19 UTC
Writing application                      : mkvmerge v84.0 ('Sleeper') 64-bit
Writing library                          : libebml v1.4.5 + libmatroska v1.7.1
Attachments                              : Cabin.otf / RoGSanSrfStd-UB.otf / ATOMIC.TTF

Video
ID                                       : 1
Format                                   : AVC
Format/Info                              : Advanced Video Codec
Format profile                           : High@L4
Format settings                          : CABAC / 4 Ref Frames
Format settings, CABAC                   : Yes
Format settings, Reference frames        : 4 frames
Codec ID                                 : V_MPEG4/ISO/AVC
Duration                                 : 23 min 41 s
Bit rate mode                            : Constant
Bit rate                                 : 3 953 kb/s
Nominal bit rate                         : 10 000 kb/s
Width                                    : 1 920 pixels
Height                                   : 1 080 pixels
Display aspect ratio                     : 16:9
Frame rate mode                          : Constant
Frame rate                               : 23.976 (24000/1001) FPS
Color space                              : YUV
Chroma subsampling                       : 4:2:0
Bit depth                                : 8 bits
Scan type                                : Progressive
Bits/(Pixel*Frame)                       : 0.080
Stream size                              : 670 MiB (93%)
Default                                  : Yes
Forced                                   : No
Color range                              : Limited
Color primaries                          : BT.709
Transfer characteristics                 : BT.709
Matrix coefficients                      : BT.709

Audio
ID                                       : 2
Format                                   : E-AC-3
Format/Info                              : Enhanced AC-3
Commercial name                          : Dolby Digital Plus
Codec ID                                 : A_EAC3
Duration                                 : 23 min 41 s
Bit rate mode                            : Constant
Bit rate                                 : 224 kb/s
Channel(s)                               : 2 channels
Channel layout                           : L R
Sampling rate                            : 48.0 kHz
Frame rate                               : 31.250 FPS (1536 SPF)
Compression mode                         : Lossy
Stream size                              : 37.9 MiB (5%)
Language                                 : Japanese
Service kind                             : Complete Main
Default                                  : Yes
Forced                                   : No

Text
ID                                       : 3
Format                                   : ASS
Codec ID                                 : S_TEXT/ASS
Codec ID/Info                            : Advanced Sub Station Alpha
Duration                                 : 23 min 21 s
Bit rate                                 : 41.8 kb/s
Frame rate                               : 24.081 FPS
Count of elements                        : 33754
Compression mode                         : Lossless
Stream size                              : 6.98 MiB (1%)
Language                                 : English
Default                                  : Yes
Forced                                   : No
beta
Anime DDL+NZB mirror
Current Time: 13/07/2024 13:21



About/FAQs

Discord