File Size41.05 MB (43,045,821 bytes)
DownloadClickNUpload | Jheberg | MultiUp
  • BdUpload
  • DownAce
  • Fichier
  • FileCloud
  • Filerio
  • FilesCdn
  • IndiShare
  • Kbagi
  • Solidfiles
  • Turbobit
  • UpToBox
  • Uppit
| OpenLoad | Sendspace | ZippyShare
HashesCRC32: F585E340, MD5: 4A22AABC6D0D45AEDCAF00940327E9E9, SHA1: 4F1BE7141650ACE9386371A0C3120E254B7B39EC, SHA256: D178DA8B56649B2F40ED1EDABF4546CF840D7ACDA8092FC2FDF115A060E39DA3, ED2K: 9B53912DD567DCC78E0E72F8A2FFFD89
Screenshots
screenshotscreenshotscreenshotscreenshotscreenshot
SubtitlesAll Attachments | English(US) [eng, ASS], Francais(France) [fre, ASS], Deutsch [ger, ASS], Italiano [ita, ASS], Espanol(Espana) [spa, ASS], Espanol [spa, ASS], Portugues(Brasil) [por, ASS], Russian [rus, ASS]
Additional Info
General
Unique ID                                : 77251949293595904005123606605459481606 (0x3A1E2F2A65B817EC855A79C9E741E406)
Complete name                            : [Phoenixar-raws] Nobunaga-sensei no Osanazuma - 06 [720p HEVC].mkv
Format                                   : Matroska
Format version                           : Version 4
File size                                : 41.1 MiB
Duration                                 : 7 min 30 s
Overall bit rate                         : 765 kb/s
Encoded date                             : UTC 2019-05-12 14:31:58
Writing application                      : mkvmerge v33.1.0 ('Primrose') 64-bit
Writing library                          : libebml v1.3.7 + libmatroska v1.5.0

Video
ID                                       : 1
Format                                   : HEVC
Format/Info                              : High Efficiency Video Coding
Format profile                           : Main 10@L3.1@Main
Codec ID                                 : V_MPEGH/ISO/HEVC
Duration                                 : 7 min 29 s
Bit rate                                 : 633 kb/s
Width                                    : 1 280 pixels
Height                                   : 720 pixels
Display aspect ratio                     : 16:9
Frame rate mode                          : Constant
Frame rate                               : 23.976 (24000/1001) FPS
Color space                              : YUV
Chroma subsampling                       : 4:2:0
Bit depth                                : 10 bits
Bits/(Pixel*Frame)                       : 0.029
Stream size                              : 33.9 MiB (83%)
Default                                  : Yes
Forced                                   : No

Audio
ID                                       : 2
Format                                   : AAC LC
Format/Info                              : Advanced Audio Codec Low Complexity
Codec ID                                 : A_AAC-2
Duration                                 : 7 min 30 s
Bit rate                                 : 128 kb/s
Channel(s)                               : 2 channels
Channel layout                           : L R
Sampling rate                            : 44.1 kHz
Frame rate                               : 43.066 FPS (1024 SPF)
Compression mode                         : Lossy
Stream size                              : 6.87 MiB (17%)
Default                                  : Yes
Forced                                   : No

Text #1
ID                                       : 3
Format                                   : ASS
Codec ID                                 : S_TEXT/ASS
Codec ID/Info                            : Advanced Sub Station Alpha
Duration                                 : 7 min 4 s
Bit rate                                 : 162 b/s
Count of elements                        : 137
Compression mode                         : Lossless
Stream size                              : 8.43 KiB (0%)
Title                                    : English(US)
Language                                 : English
Default                                  : Yes
Forced                                   : No

Text #2
ID                                       : 4
Format                                   : ASS
Codec ID                                 : S_TEXT/ASS
Codec ID/Info                            : Advanced Sub Station Alpha
Duration                                 : 6 min 54 s
Bit rate                                 : 179 b/s
Count of elements                        : 115
Compression mode                         : Lossless
Stream size                              : 9.12 KiB (0%)
Title                                    : Francais(France)
Language                                 : French
Default                                  : No
Forced                                   : No

Text #3
ID                                       : 5
Format                                   : ASS
Codec ID                                 : S_TEXT/ASS
Codec ID/Info                            : Advanced Sub Station Alpha
Duration                                 : 6 min 55 s
Bit rate                                 : 176 b/s
Count of elements                        : 125
Compression mode                         : Lossless
Stream size                              : 8.92 KiB (0%)
Title                                    : Deutsch
Language                                 : German
Default                                  : No
Forced                                   : No

Text #4
ID                                       : 6
Format                                   : ASS
Codec ID                                 : S_TEXT/ASS
Codec ID/Info                            : Advanced Sub Station Alpha
Duration                                 : 6 min 54 s
Bit rate                                 : 191 b/s
Count of elements                        : 139
Compression mode                         : Lossless
Stream size                              : 9.70 KiB (0%)
Title                                    : Italiano
Language                                 : Italian
Default                                  : No
Forced                                   : No

Text #5
ID                                       : 7
Format                                   : ASS
Codec ID                                 : S_TEXT/ASS
Codec ID/Info                            : Advanced Sub Station Alpha
Duration                                 : 6 min 54 s
Bit rate                                 : 161 b/s
Count of elements                        : 128
Compression mode                         : Lossless
Stream size                              : 8.16 KiB (0%)
Title                                    : Espanol(Espana)
Language                                 : Spanish
Default                                  : No
Forced                                   : No

Text #6
ID                                       : 8
Format                                   : ASS
Codec ID                                 : S_TEXT/ASS
Codec ID/Info                            : Advanced Sub Station Alpha
Duration                                 : 6 min 54 s
Bit rate                                 : 161 b/s
Count of elements                        : 128
Compression mode                         : Lossless
Stream size                              : 8.20 KiB (0%)
Title                                    : Espanol
Language                                 : Spanish
Default                                  : No
Forced                                   : No

Text #7
ID                                       : 9
Format                                   : ASS
Codec ID                                 : S_TEXT/ASS
Codec ID/Info                            : Advanced Sub Station Alpha
Duration                                 : 6 min 54 s
Bit rate                                 : 173 b/s
Count of elements                        : 135
Compression mode                         : Lossless
Stream size                              : 8.80 KiB (0%)
Title                                    : Portugues(Brasil)
Language                                 : Portuguese
Default                                  : No
Forced                                   : No

Text #8
ID                                       : 10
Format                                   : ASS
Codec ID                                 : S_TEXT/ASS
Codec ID/Info                            : Advanced Sub Station Alpha
Duration                                 : 6 min 54 s
Bit rate                                 : 218 b/s
Count of elements                        : 135
Compression mode                         : Lossless
Stream size                              : 11.1 KiB (0%)
Title                                    : Russian
Language                                 : Russian
Default                                  : No
Forced                                   : No
beta
Anime DDL+NZB mirror
Current Time: 15/12/2019 18:22



About/FAQs