[PAS] Carole & Tuesday - 22 (WEB 720p AAC) [792426C9].mkv


File Size223.0 MB (233,838,246 bytes)
DownloadClickNUpload | Jheberg | MultiUp
  • BdUpload
  • DownAce
  • Fichier
  • FileCloud
  • Filerio
  • FilesCdn
  • IndiShare
  • Kbagi
  • Turbobit
  • UpToBox
  • Uppit
| OpenLoad | Sendspace | SolidFiles | ZippyShare
HashesCRC32: 792426C9, MD5: CA835B8E63124C38DFB4CD5172707263, SHA1: DFCB45979D23066EC03E6492225F3891207178ED, SHA256: 241D16F31ECE36FC3AD4424C7B1D449DB2C41B5EAF9FC349077C709FC9301071, ED2K: 662CEBC90FD20CA383BB34E1D61B7A4B
Screenshots
screenshotscreenshotscreenshotscreenshotscreenshot
SubtitlesAll Attachments | eng [ASS]
Additional Info
General
Unique ID                                : 263834039682958719076532839358523759852 (0xC67C9675F5699ACFDD4E14DB1237DCEC)
Complete name                            : [PAS] Carole & Tuesday - 22 (WEB 720p AAC) [792426C9].mkv
Format                                   : Matroska
Format version                           : Version 4
File size                                : 223 MiB
Duration                                 : 22 min 49 s
Overall bit rate                         : 1 366 kb/s
Encoded date                             : UTC 2019-09-19 15:12:02
Writing application                      : mkvmerge v32.0.0 ('Astral Progressions') 64-bit
Writing library                          : libebml v1.3.7 + libmatroska v1.5.0
Attachments                              : Austie_Bost_Hooked_on_a_Feeling.ttf / Dark_Black2.ttf / MYRIADPRO-SEMIBOLD.TTF / MYRIADPRO-SEMIBOLDIT.TTF

Video
ID                                       : 1
Format                                   : AVC
Format/Info                              : Advanced Video Codec
Format profile                           : High 4:4:4 Predictive@L5
Format settings                          : CABAC / 16 Ref Frames
Format settings, CABAC                   : Yes
Format settings, ReFrames                : 16 frames
Codec ID                                 : V_MPEG4/ISO/AVC
Duration                                 : 22 min 49 s
Bit rate                                 : 1 172 kb/s
Width                                    : 1 280 pixels
Height                                   : 720 pixels
Display aspect ratio                     : 16:9
Frame rate mode                          : Constant
Frame rate                               : 23.976 (24000/1001) FPS
Color space                              : YUV
Chroma subsampling                       : 4:4:4
Bit depth                                : 10 bits
Scan type                                : Progressive
Bits/(Pixel*Frame)                       : 0.053
Stream size                              : 191 MiB (86%)
Writing library                          : x264 core 155 r2893 b00bcaf
Encoding settings                        : cabac=1 / ref=16 / deblock=1:-1:-1 / analyse=0x1:0x111 / me=umh / subme=10 / psy=1 / psy_rd=0.80:0.00 / mixed_ref=1 / me_range=32 / chroma_me=1 / trellis=2 / 8x8dct=0 / cqm=0 / deadzone=21,11 / fast_pskip=0 / chroma_qp_offset=4 / threads=22 / lookahead_threads=5 / sliced_threads=0 / nr=0 / decimate=0 / interlaced=0 / bluray_compat=0 / constrained_intra=0 / bframes=16 / b_pyramid=2 / b_adapt=2 / b_bias=0 / direct=3 / weightb=1 / open_gop=0 / weightp=2 / keyint=240 / keyint_min=23 / scenecut=40 / intra_refresh=0 / rc_lookahead=48 / rc=crf / mbtree=1 / crf=17.0 / qcomp=0.70 / qpmin=0 / qpmax=81 / qpstep=4 / ip_ratio=1.40 / aq=3:0.85
Language                                 : Japanese
Default                                  : Yes
Forced                                   : No
Color range                              : Limited
Matrix coefficients                      : BT.709

Audio
ID                                       : 2
Format                                   : AAC LC
Format/Info                              : Advanced Audio Codec Low Complexity
Codec ID                                 : A_AAC-2
Duration                                 : 22 min 49 s
Bit rate                                 : 192 kb/s
Channel(s)                               : 2 channels
Channel layout                           : L R
Sampling rate                            : 48.0 kHz
Frame rate                               : 46.875 FPS (1024 SPF)
Compression mode                         : Lossy
Stream size                              : 30.8 MiB (14%)
Language                                 : Japanese
Default                                  : Yes
Forced                                   : No

Text
ID                                       : 3
Format                                   : ASS
Codec ID                                 : S_TEXT/ASS
Codec ID/Info                            : Advanced Sub Station Alpha
Duration                                 : 22 min 44 s
Bit rate                                 : 204 b/s
Count of elements                        : 422
Compression mode                         : Lossless
Stream size                              : 34.2 KiB (0%)
Language                                 : English
Default                                  : Yes
Forced                                   : No

Menu
00:00:00.033                             : en:Intro / en:Intro
00:00:19.660                             : en:OP
00:01:49.920                             : en:Part A
00:10:27.890                             : en:Part B
beta
Anime DDL+NZB mirror
Current Time: 14/08/2020 16:24



About/FAQs