[PAS] Carole & Tuesday - 15 (WEB 720p AAC) [6D31F38F].mkv


File Size295.0 MB (309,327,533 bytes)
DownloadClickNUpload | Jheberg | MultiUp
  • BdUpload
  • DownAce
  • Fichier
  • FileCloud
  • Filerio
  • FilesCdn
  • IndiShare
  • Kbagi
  • Turbobit
  • UpToBox
  • Uppit
| OpenLoad | Sendspace | SolidFiles | ZippyShare
HashesCRC32: 6D31F38F, MD5: 855485F243782BE77AA14DB8BCFB1C57, SHA1: F0F0EA6F09ED82183B01D355BC92D8DDDE84DBFC, SHA256: DAD7FFF55F7D6A39B90A89FD42872D8593F573970E48460CDD371996072D464C, ED2K: CABBD76F9C14EF23D6675F7CB0A44B0F
Screenshots
screenshotscreenshotscreenshotscreenshotscreenshot
SubtitlesAll Attachments | und [ASS]
Additional Info
General
Unique ID                                : 107893463297998857691862916174056722668 (0x512B8671FEBA4DFBBB559949E02310EC)
Complete name                            : [PAS] Carole & Tuesday - 15 (WEB 720p AAC) [6D31F38F].mkv
Format                                   : Matroska
Format version                           : Version 4
File size                                : 295 MiB
Duration                                 : 22 min 49 s
Overall bit rate                         : 1 806 kb/s
Encoded date                             : UTC 2019-08-01 13:13:56
Writing application                      : mkvmerge v32.0.0 ('Astral Progressions') 64-bit
Writing library                          : libebml v1.3.7 + libmatroska v1.5.0
Attachments                              : MYRIADPRO-SEMIBOLD.TTF / MYRIADPRO-SEMIBOLDIT.TTF / JennaSue.ttf

Video
ID                                       : 1
Format                                   : AVC
Format/Info                              : Advanced Video Codec
Format profile                           : High 4:4:4 Predictive@L5
Format settings                          : CABAC / 16 Ref Frames
Format settings, CABAC                   : Yes
Format settings, ReFrames                : 16 frames
Codec ID                                 : V_MPEG4/ISO/AVC
Duration                                 : 22 min 49 s
Bit rate                                 : 1 614 kb/s
Width                                    : 1 280 pixels
Height                                   : 720 pixels
Display aspect ratio                     : 16:9
Frame rate mode                          : Constant
Frame rate                               : 23.976 (24000/1001) FPS
Color space                              : YUV
Chroma subsampling                       : 4:4:4
Bit depth                                : 10 bits
Scan type                                : Progressive
Bits/(Pixel*Frame)                       : 0.073
Stream size                              : 264 MiB (89%)
Writing library                          : x264 core 155 r2893 b00bcaf
Encoding settings                        : cabac=1 / ref=16 / deblock=1:-1:-1 / analyse=0x1:0x111 / me=umh / subme=10 / psy=1 / psy_rd=0.80:0.00 / mixed_ref=1 / me_range=32 / chroma_me=1 / trellis=2 / 8x8dct=0 / cqm=0 / deadzone=21,11 / fast_pskip=0 / chroma_qp_offset=4 / threads=22 / lookahead_threads=5 / sliced_threads=0 / nr=0 / decimate=0 / interlaced=0 / bluray_compat=0 / constrained_intra=0 / bframes=16 / b_pyramid=2 / b_adapt=2 / b_bias=0 / direct=3 / weightb=1 / open_gop=0 / weightp=2 / keyint=240 / keyint_min=23 / scenecut=40 / intra_refresh=0 / rc_lookahead=48 / rc=crf / mbtree=1 / crf=17.0 / qcomp=0.70 / qpmin=0 / qpmax=81 / qpstep=4 / ip_ratio=1.40 / aq=3:0.85
Language                                 : Japanese
Default                                  : Yes
Forced                                   : No
Color range                              : Limited
Matrix coefficients                      : BT.709

Audio
ID                                       : 2
Format                                   : AAC LC
Format/Info                              : Advanced Audio Codec Low Complexity
Codec ID                                 : A_AAC-2
Duration                                 : 22 min 49 s
Bit rate                                 : 192 kb/s
Channel(s)                               : 2 channels
Channel layout                           : L R
Sampling rate                            : 48.0 kHz
Frame rate                               : 46.875 FPS (1024 SPF)
Compression mode                         : Lossy
Stream size                              : 30.8 MiB (10%)
Language                                 : Japanese
Default                                  : Yes
Forced                                   : No

Text
ID                                       : 3
Format                                   : ASS
Codec ID                                 : S_TEXT/ASS
Codec ID/Info                            : Advanced Sub Station Alpha
Duration                                 : 21 min 14 s
Bit rate                                 : 162 b/s
Count of elements                        : 335
Compression mode                         : Lossless
Stream size                              : 25.3 KiB (0%)
Default                                  : Yes
Forced                                   : No

Menu
00:00:00.033                             : en:Intro / en:Intro
00:00:19.660                             : en:OP
00:01:49.920                             : en:Part A
00:10:37.900                             : en:Part B
00:21:19.880                             : en:ED
beta
Anime DDL+NZB mirror
Current Time: 14/08/2020 02:24



About/FAQs