[PAS] Carole & Tuesday - 09 (WEB 720p AAC) [C7470B2D].mkv


File Size341.5 MB (358,074,772 bytes)
DownloadClickNUpload | Jheberg | MultiUp
  • BdUpload
  • DownAce
  • Fichier
  • FileCloud
  • Filerio
  • FilesCdn
  • IndiShare
  • Kbagi
  • Solidfiles
  • Turbobit
  • UpToBox
  • Uppit
| OpenLoad | SolidFiles | ZippyShare
Sendspace: Part1, Part2
HashesCRC32: C7470B2D, MD5: 33D1EB3502C10C44E65DC8EAB32B2F71, SHA1: E3729B254794AAA9D55F9C61D377DAA65D0B6BFF, SHA256: A4CE949456E92CCA62B5E6B981DC1756DA8B05B6040C2D094D6164CF3EDEC035, ED2K: 2AC3EB45FD50D935BF75A811B9B075C4
Screenshots
screenshotscreenshotscreenshotscreenshotscreenshot
SubtitlesAll Attachments | eng [ASS]
Additional Info
General
Unique ID                                : 37914252961541272188357880326246024320 (0x1C8604FE97A22734F55DF0D9526EC480)
Complete name                            : [PAS] Carole & Tuesday - 09 (WEB 720p AAC) [C7470B2D].mkv
Format                                   : Matroska
Format version                           : Version 4
File size                                : 341 MiB
Duration                                 : 22 min 49 s
Overall bit rate                         : 2 091 kb/s
Encoded date                             : UTC 2019-06-06 15:24:37
Writing application                      : mkvmerge v32.0.0 ('Astral Progressions') 64-bit
Writing library                          : libebml v1.3.7 + libmatroska v1.5.0
Attachments                              : KGFALLFORYOU.TTF / MYRIADPRO-SEMIBOLD.TTF / MYRIADPRO-SEMIBOLDIT.TTF / ALEGREYA-REGULAR.OTF / Austie_Bost_Hooked_on_a_Feeling.ttf / DolomitesXtra.ttf

Video
ID                                       : 1
Format                                   : AVC
Format/Info                              : Advanced Video Codec
Format profile                           : High 4:4:4 Predictive@L5
Format settings                          : CABAC / 16 Ref Frames
Format settings, CABAC                   : Yes
Format settings, ReFrames                : 16 frames
Codec ID                                 : V_MPEG4/ISO/AVC
Duration                                 : 22 min 49 s
Bit rate                                 : 1 897 kb/s
Width                                    : 1 280 pixels
Height                                   : 720 pixels
Display aspect ratio                     : 16:9
Frame rate mode                          : Constant
Frame rate                               : 23.976 (24000/1001) FPS
Color space                              : YUV
Chroma subsampling                       : 4:4:4
Bit depth                                : 10 bits
Scan type                                : Progressive
Bits/(Pixel*Frame)                       : 0.086
Stream size                              : 310 MiB (91%)
Writing library                          : x264 core 155 r2893 b00bcaf
Encoding settings                        : cabac=1 / ref=16 / deblock=1:-1:-1 / analyse=0x1:0x111 / me=umh / subme=10 / psy=1 / psy_rd=0.80:0.00 / mixed_ref=1 / me_range=32 / chroma_me=1 / trellis=2 / 8x8dct=0 / cqm=0 / deadzone=21,11 / fast_pskip=0 / chroma_qp_offset=4 / threads=22 / lookahead_threads=5 / sliced_threads=0 / nr=0 / decimate=0 / interlaced=0 / bluray_compat=0 / constrained_intra=0 / bframes=16 / b_pyramid=2 / b_adapt=2 / b_bias=0 / direct=3 / weightb=1 / open_gop=0 / weightp=2 / keyint=240 / keyint_min=23 / scenecut=40 / intra_refresh=0 / rc_lookahead=48 / rc=crf / mbtree=1 / crf=17.0 / qcomp=0.70 / qpmin=0 / qpmax=81 / qpstep=4 / ip_ratio=1.40 / aq=3:0.85
Language                                 : Japanese
Default                                  : Yes
Forced                                   : No
Color range                              : Limited
Matrix coefficients                      : BT.709

Audio
ID                                       : 2
Format                                   : AAC LC
Format/Info                              : Advanced Audio Codec Low Complexity
Codec ID                                 : A_AAC-2
Duration                                 : 22 min 49 s
Bit rate                                 : 192 kb/s
Channel(s)                               : 2 channels
Channel layout                           : L R
Sampling rate                            : 48.0 kHz
Frame rate                               : 46.875 FPS (1024 SPF)
Compression mode                         : Lossy
Stream size                              : 30.8 MiB (9%)
Language                                 : Japanese
Default                                  : Yes
Forced                                   : No

Text
ID                                       : 3
Format                                   : ASS
Codec ID                                 : S_TEXT/ASS
Codec ID/Info                            : Advanced Sub Station Alpha
Duration                                 : 21 min 12 s
Bit rate                                 : 232 b/s
Count of elements                        : 441
Compression mode                         : Lossless
Stream size                              : 36.2 KiB (0%)
Language                                 : English
Default                                  : Yes
Forced                                   : No

Menu
00:00:00.033                             : en:Intro / en:Intro
00:00:19.700                             : en:OP
00:01:49.920                             : en:Part A
00:11:46.930                             : en:Part B
00:21:19.880                             : en:ED
beta
Anime DDL+NZB mirror
Current Time: 18/11/2019 23:57



About/FAQs