File Size425.0 MB (445,632,999 bytes)
DownloadClickNUpload | DownloadGG | KrakenFiles | MultiUp
  • BdUpload
  • DownAce
  • Fichier
  • FileCloud
  • Filerio
  • FilesCdn
  • IndiShare
  • Kbagi
  • Turbobit
  • UpToBox
  • Uppit
| ZippyShare
HashesCRC32: 29D8F149, MD5: DB9CC5CC0374D845D5489ECDF001CE3F, SHA1: 0A7BE3FA9CA5B2F005D04AA8BE9B17883579B57E, SHA256: 2C0E06971204EFA2D886B7AE60BA73EF9FC53593DAECB2A8E4517ECBC93E4E08, ED2K: 4D2C8301C0B88C0FB01EF2BE2B6D1727
Screenshots
screenshotscreenshotscreenshotscreenshotscreenshot
SubtitlesAll Attachments | eng [ASS]
Additional Info
General
Unique ID                                : 200447070151965180787926123668934583092 (0x96CCB39357FA44B50FAB82AE4ED96334)
Complete name                            : Paripi Koumei - S01E11.mkv
Format                                   : Matroska
Format version                           : Version 4
File size                                : 425 MiB
Duration                                 : 24 min 26 s
Overall bit rate                         : 2 431 kb/s
Encoded date                             : UTC 2022-06-09 18:43:14
Writing application                      : mkvmerge v68.0.0 ('The Curtain') 64-bit
Writing library                          : libebml v1.4.2 + libmatroska v1.6.4
Attachments                              : coolvetica rg.otf / Flowers Kingdom.ttf / HIROMISAKE.ttf

Video
ID                                       : 1
Format                                   : AVC
Format/Info                              : Advanced Video Codec
Format profile                           : High@L4.1
Format settings                          : CABAC / 4 Ref Frames
Format settings, CABAC                   : Yes
Format settings, Reference frames        : 4 frames
Codec ID                                 : V_MPEG4/ISO/AVC
Duration                                 : 24 min 26 s
Bit rate                                 : 2 267 kb/s
Width                                    : 1 920 pixels
Height                                   : 1 080 pixels
Display aspect ratio                     : 16:9
Frame rate mode                          : Constant
Frame rate                               : 23.976 (24000/1001) FPS
Color space                              : YUV
Chroma subsampling                       : 4:2:0
Bit depth                                : 8 bits
Scan type                                : Progressive
Bits/(Pixel*Frame)                       : 0.046
Stream size                              : 396 MiB (93%)
Writing library                          : x264 core 148
Encoding settings                        : cabac=1 / ref=3 / deblock=1:0:0 / analyse=0x3:0x113 / me=hex / subme=7 / psy=1 / psy_rd=1.00:0.00 / mixed_ref=1 / me_range=16 / chroma_me=1 / trellis=1 / 8x8dct=1 / cqm=0 / deadzone=21,11 / fast_pskip=1 / chroma_qp_offset=-2 / threads=34 / lookahead_threads=5 / sliced_threads=0 / nr=0 / decimate=1 / interlaced=0 / bluray_compat=0 / constrained_intra=0 / bframes=3 / b_pyramid=2 / b_adapt=1 / b_bias=0 / direct=1 / weightb=1 / open_gop=0 / weightp=2 / keyint=90 / keyint_min=9 / scenecut=0 / intra_refresh=0 / rc_lookahead=40 / rc=crf / mbtree=1 / crf=22.0 / qcomp=0.60 / qpmin=0 / qpmax=69 / qpstep=4 / vbv_maxrate=13500 / vbv_bufsize=135000 / crf_max=0.0 / nal_hrd=none / filler=0 / ip_ratio=1.40 / aq=1:1.00
Default                                  : Yes
Forced                                   : No

Audio
ID                                       : 2
Format                                   : AAC LC
Format/Info                              : Advanced Audio Codec Low Complexity
Codec ID                                 : A_AAC-2
Duration                                 : 24 min 26 s
Bit rate                                 : 159 kb/s
Channel(s)                               : 2 channels
Channel layout                           : L R
Sampling rate                            : 48.0 kHz
Frame rate                               : 46.875 FPS (1024 SPF)
Compression mode                         : Lossy
Delay relative to video                  : -42 ms
Stream size                              : 27.9 MiB (7%)
Language                                 : Japanese
Default                                  : Yes
Forced                                   : No

Text
ID                                       : 3
Format                                   : ASS
Codec ID                                 : S_TEXT/ASS
Codec ID/Info                            : Advanced Sub Station Alpha
Duration                                 : 23 min 37 s
Bit rate                                 : 225 b/s
Count of elements                        : 632
Compression mode                         : Lossless
Stream size                              : 39.0 KiB (0%)
Language                                 : English
Default                                  : Yes
Forced                                   : No

Menu
00:00:00.000                             : :Episode 11: Borrowing Arrows with Straw Boats - Part A
00:02:46.000                             : :OP
00:04:16.000                             : :Episode 11: Borrowing Arrows with Straw Boats - Part B
00:14:54.000                             : :Episode 11: Borrowing Arrows with Straw Boats - Part C
00:22:15.000                             : :ED
00:23:42.000                             : :Credits
beta
Anime DDL+NZB mirror
Current Time: 24/06/2024 14:22



About/FAQs

Discord