[OZi Works] Full-Time Magister S02E10 Post-disaster Bo City [1080][WeTV Web Rip][ENG SUB].mp4


File Size237.8 MB (249,337,666 bytes)
DownloadAnonFiles | ClickNUpload | DropAPK | Free | MultiUp
  • BdUpload
  • DownAce
  • Fichier
  • FileCloud
  • Filerio
  • FilesCdn
  • IndiShare
  • Kbagi
  • Turbobit
  • UpToBox
  • Uppit
| Sendspace | SolidFiles | ZippyShare
HashesCRC32: E72A2C48, MD5: 21576916CB63A1C3A4B56B1C3C32F414, SHA1: C9129366FBB658ECE7E573171FA2A150E88691DF, SHA256: 6DC0E96341AEF41E512C79E6D47104ADAA1B0E29849B25B1F3ECF2036AD402CA, ED2K: 3696ED2E6B0049B977012CC931D1A4B5
Screenshots
screenshotscreenshotscreenshotscreenshotscreenshot
Additional Info
General
Complete name                            : [OZi Works] Full-Time Magister S02E10 Post-disaster Bo City [1080][WeTV Web Rip][ENG SUB].mp4
Format                                   : MPEG-4
Format profile                           : Base Media
Codec ID                                 : isom (isom/iso2/avc1/mp41)
File size                                : 238 MiB
Duration                                 : 18 min 45 s
Overall bit rate                         : 1 772 kb/s
Writing application                      : Lavf58.29.100

Video
ID                                       : 1
Format                                   : AVC
Format/Info                              : Advanced Video Codec
Format profile                           : High@L4
Format settings                          : CABAC / 4 Ref Frames
Format settings, CABAC                   : Yes
Format settings, ReFrames                : 4 frames
Codec ID                                 : avc1
Codec ID/Info                            : Advanced Video Coding
Duration                                 : 18 min 45 s
Bit rate                                 : 1 670 kb/s
Width                                    : 1 920 pixels
Height                                   : 1 080 pixels
Display aspect ratio                     : 16:9
Frame rate mode                          : Variable
Frame rate                               : 23.976 (24000/1001) FPS
Minimum frame rate                       : 23.968 FPS
Maximum frame rate                       : 23.981 FPS
Color space                              : YUV
Chroma subsampling                       : 4:2:0
Bit depth                                : 8 bits
Scan type                                : Progressive
Bits/(Pixel*Frame)                       : 0.034
Stream size                              : 224 MiB (94%)
Color range                              : Limited
Color primaries                          : BT.709
Transfer characteristics                 : BT.709
Matrix coefficients                      : BT.709
Codec configuration box                  : avcC

Audio
ID                                       : 2
Format                                   : AAC LC
Format/Info                              : Advanced Audio Codec Low Complexity
Codec ID                                 : mp4a-40-2
Duration                                 : 18 min 45 s
Bit rate mode                            : Constant
Bit rate                                 : 96.0 kb/s
Channel(s)                               : 2 channels
Channel layout                           : L R
Sampling rate                            : 48.0 kHz
Frame rate                               : 46.875 FPS (1024 SPF)
Compression mode                         : Lossy
Stream size                              : 12.8 MiB (5%)
Default                                  : Yes
Alternate group                          : 1

Other Files in this Torrent
[OZi Works] Full-Time Magister S02E10 Post-disaster Bo City [1080][WeTV Web Rip][ENG SUB].mp4
beta
Anime DDL+NZB mirror
Current Time: 07/12/2022 03:04



About/FAQs

Discord