File Size943.9 MB (989,744,101 bytes)
DownloadAnonFiles | ClickNUpload | DropAPK | Free
MultiUp: Part1
  • BdUpload
  • DownAce
  • Fichier
  • FileCloud
  • Filerio
  • FilesCdn
  • IndiShare
  • Kbagi
  • Turbobit
  • UpToBox
  • Uppit
, Part2
  • BdUpload
  • DownAce
  • Fichier
  • FileCloud
  • Filerio
  • FilesCdn
  • IndiShare
  • Kbagi
  • Turbobit
  • UpToBox
  • Uppit

SolidFiles: Part1, Part2
ZippyShare: Part1, Part2
HashesCRC32: 3740FC51, MD5: 3861FCC318C560E06D0420E67D435AF3, SHA1: 6709BB11ABE682B5BA29E323B2EC487CCA0353F3, SHA256: 7B649293741A0AF7E37481E50395AC40921CA82D55DF9FEFB3AA3C766FC19076, ED2K: C89D3F333C212180DACA47F294A93B21
Screenshots
screenshotscreenshotscreenshotscreenshotscreenshot
SubtitlesAll Attachments | eng [ASS]
Additional Info
General
Unique ID                                : 240162924720229677066887051119052659065 (0xB4ADB263200E41C4884887926AA71979)
Complete name                            : [OWO] Haikyuu!! To The Top - 23 (WEB 1080p AAC) [3740FC51].mkv
Format                                   : Matroska
Format version                           : Version 4
File size                                : 944 MiB
Duration                                 : 23 min 57 s
Overall bit rate                         : 5 510 kb/s
Encoded date                             : UTC 2020-12-05 01:06:47
Writing application                      : mkvmerge v51.0.0 ('I Wish') 64-bit
Writing library                          : libebml v1.4.0 + libmatroska v1.6.2
Attachments                              : brook23.ttf / BTTTRIAL.ttf / FOTCometStdStripped-Bold.otf / FRADM.TTF / GOTH720K.TTF / KGRedHands.ttf / LTFinnegan_Medium.ttf / LTFinnegan_MediumItalic.ttf / Simple Kind Of Girl.ttf

Video
ID                                       : 1
Format                                   : AVC
Format/Info                              : Advanced Video Codec
Format profile                           : High 10@L5.1
Format settings                          : CABAC / 16 Ref Frames
Format settings, CABAC                   : Yes
Format settings, ReFrames                : 16 frames
Codec ID                                 : V_MPEG4/ISO/AVC
Duration                                 : 23 min 57 s
Bit rate                                 : 5 377 kb/s
Width                                    : 1 920 pixels
Height                                   : 1 080 pixels
Display aspect ratio                     : 16:9
Frame rate mode                          : Constant
Frame rate                               : 23.976 (24000/1001) FPS
Color space                              : YUV
Chroma subsampling                       : 4:2:0
Bit depth                                : 10 bits
Scan type                                : Progressive
Bits/(Pixel*Frame)                       : 0.108
Stream size                              : 921 MiB (98%)
Writing library                          : x264 core 161 r3018 db0d417
Encoding settings                        : cabac=1 / ref=16 / deblock=1:-1:-1 / analyse=0x3:0x113 / me=umh / subme=10 / psy=1 / psy_rd=0.70:0.00 / mixed_ref=1 / me_range=32 / chroma_me=1 / trellis=2 / 8x8dct=1 / cqm=0 / deadzone=21,11 / fast_pskip=0 / chroma_qp_offset=-2 / threads=24 / lookahead_threads=6 / sliced_threads=0 / nr=0 / decimate=0 / interlaced=0 / bluray_compat=0 / constrained_intra=0 / bframes=16 / b_pyramid=2 / b_adapt=2 / b_bias=0 / direct=3 / weightb=1 / open_gop=0 / weightp=2 / keyint=240 / keyint_min=24 / scenecut=40 / intra_refresh=0 / rc_lookahead=48 / rc=crf / mbtree=1 / crf=14.0 / qcomp=0.70 / qpmin=0 / qpmax=81 / qpstep=4 / ip_ratio=1.40 / aq=3:0.80
Default                                  : Yes
Forced                                   : No
Color range                              : Limited
Matrix coefficients                      : BT.709

Audio
ID                                       : 2
Format                                   : AAC LC
Format/Info                              : Advanced Audio Codec Low Complexity
Codec ID                                 : A_AAC-2
Duration                                 : 23 min 57 s
Bit rate                                 : 128 kb/s
Channel(s)                               : 2 channels
Channel layout                           : L R
Sampling rate                            : 44.1 kHz
Frame rate                               : 43.066 FPS (1024 SPF)
Compression mode                         : Lossy
Stream size                              : 21.9 MiB (2%)
Language                                 : Japanese
Default                                  : Yes
Forced                                   : No

Text
ID                                       : 3
Format                                   : ASS
Codec ID                                 : S_TEXT/ASS
Codec ID/Info                            : Advanced Sub Station Alpha
Duration                                 : 23 min 53 s
Bit rate                                 : 196 b/s
Count of elements                        : 436
Compression mode                         : Lossless
Stream size                              : 34.4 KiB (0%)
Language                                 : English
Default                                  : Yes
Forced                                   : No

Menu
00:00:00.033                             : en:Intro
00:01:23.980                             : en:OP
00:02:54.030                             : en:Part A
00:16:34.970                             : en:Part B
00:22:21.990                             : en:ED
00:23:51.990                             : en:Preview
beta
Anime DDL+NZB mirror
Current Time: 02/12/2021 09:08



About/FAQs

Discord