File Size640.1 MB (671,244,288 bytes)
DownloadClickNUpload | Jheberg
  • 1Fichier
  • 2Giga
  • BDupload
  • ClicknUpload
  • Filerio
  • FilesCDN
  • FilesUpload
  • Free
  • MegaUp
  • Nitroflare
  • Openload
  • ShareOnline
  • Solidfiles
  • Turbobit
  • Tusfiles
  • Uppit
  • Uptobox
  • ddlTo
| OpenLoad
MultiUp: Part1
  • BdUpload
  • DownAce
  • Fichier
  • FileCloud
  • Filerio
  • FilesCdn
  • IndiShare
  • Kbagi
  • Solidfiles
  • Turbobit
  • UpToBox
  • Uppit
, Part2
  • BdUpload
  • DownAce
  • Fichier
  • FileCloud
  • Filerio
  • FilesCdn
  • IndiShare
  • Kbagi
  • Solidfiles
  • Turbobit
  • UpToBox
  • Uppit

Sendspace: Part1, Part2, Part3
SolidFiles: Part1, Part2
ZippyShare: Part1, Part2
HashesCRC32: 87162103, MD5: C148361CF611E629F9CA21B6F33E5086, SHA1: D048775D884E690031349811102BD9466CE2C0C5, SHA256: 3973C9409EBC67FFDA54270B677BDCCE9257F6F0EEED42F160AC3DDB42B2FAAE, ED2K: EC8C67173DD11ACF7D7880BCA350A810
Screenshots
screenshotscreenshotscreenshotscreenshotscreenshot
SubtitlesAll Attachments | und [ASS]
Additional Info
General
Unique ID                                : 129111758950697546464438805645019875648 (0x61220530A5FCD9A43E78A20CC4588940)
Complete name                            : [Over-Time] Star☆Twinkle Precure - 18 [87162103].mkv
Format                                   : Matroska
Format version                           : Version 4
File size                                : 640 MiB
Duration                                 : 23 min 54 s
Overall bit rate                         : 3 742 kb/s
Encoded date                             : UTC 2019-06-03 07:06:09
Writing application                      : mkvmerge v21.0.0 ('Tardigrades Will Inherit The Earth') 32-bit
Writing library                          : libebml v1.3.5 + libmatroska v1.4.8
Attachments                              : Bitterbrush DEMO.otf / Blogger Sans-Bold.ttf / FOT-MatissePro-EB-Revised.otf / GhoulFriAOE.ttf / gotham-rounded-bold.otf / VarelaRound-Regular.ttf / ArchitectsDaughter.ttf

Video
ID                                       : 1
Format                                   : AVC
Format/Info                              : Advanced Video Codec
Format profile                           : High 10@L5
Format settings                          : CABAC / 16 Ref Frames
Format settings, CABAC                   : Yes
Format settings, ReFrames                : 16 frames
Codec ID                                 : V_MPEG4/ISO/AVC
Duration                                 : 23 min 54 s
Bit rate                                 : 3 544 kb/s
Width                                    : 1 280 pixels
Height                                   : 720 pixels
Display aspect ratio                     : 16:9
Frame rate mode                          : Constant
Frame rate                               : 23.976 (24000/1001) FPS
Color space                              : YUV
Chroma subsampling                       : 4:2:0
Bit depth                                : 10 bits
Scan type                                : Progressive
Bits/(Pixel*Frame)                       : 0.160
Stream size                              : 606 MiB (95%)
Writing library                          : x264 core 157 r2970+47 cae74a0 t_mod_New [0-bit@all X86_64]
Encoding settings                        : cabac=1 / ref=16 / deblock=1:0:0 / analyse=0x3:0x133 / me=umh / subme=10 / psy=1 / fade_compensate=0.70 / psy_rd=0.60:0.15 / mixed_ref=1 / me_range=24 / chroma_me=1 / trellis=2 / 8x8dct=1 / cqm=0 / deadzone=21,11 / fast_pskip=1 / chroma_qp_offset=-3 / threads=12 / lookahead_threads=3 / sliced_threads=0 / nr=0 / decimate=1 / interlaced=0 / bluray_compat=0 / constrained_intra=0 / fgo=0 / bframes=10 / b_pyramid=2 / b_adapt=2 / b_bias=0 / direct=3 / weightb=1 / open_gop=0 / weightp=2 / keyint=250 / keyint_min=23 / scenecut=40 / intra_refresh=0 / rc_lookahead=60 / rc=crf / mbtree=1 / crf=18.0000 / qcomp=0.70 / qpmin=0:0:0 / qpmax=81:81:81 / qpstep=4 / ip_ratio=1.40 / aq=3:0.80 / aq-sensitivity=10.00 / aq-factor=1.00:1.00:1.00 / aq2=0 / aq3=0
Language                                 : English
Default                                  : Yes
Forced                                   : No

Audio
ID                                       : 2
Format                                   : AAC LC
Format/Info                              : Advanced Audio Codec Low Complexity
Codec ID                                 : A_AAC-2
Duration                                 : 23 min 54 s
Bit rate                                 : 192 kb/s
Channel(s)                               : 2 channels
Channel layout                           : L R
Sampling rate                            : 48.0 kHz
Frame rate                               : 46.875 FPS (1024 SPF)
Compression mode                         : Lossy
Stream size                              : 32.3 MiB (5%)
Language                                 : Japanese
Default                                  : Yes
Forced                                   : No

Text
ID                                       : 3
Format                                   : ASS
Codec ID                                 : S_TEXT/ASS
Codec ID/Info                            : Advanced Sub Station Alpha
Duration                                 : 23 min 48 s
Bit rate                                 : 1 118 b/s
Count of elements                        : 1948
Compression mode                         : Lossless
Stream size                              : 195 KiB (0%)
Default                                  : Yes
Forced                                   : No

Menu
00:00:00.000                             : en:Intro
00:01:37.972                             : en:OP
00:03:07.937                             : en:Part A
00:11:01.952                             : en:Part B
00:22:04.948                             : en:ED
00:23:34.955                             : en:Preview
beta
Anime DDL+NZB mirror
Current Time: 11/08/2020 00:29



About/FAQs