File Size225.1 MB (236,031,141 bytes)
DownloadClickNUpload | DropAPK | Jheberg
  • 1Fichier
  • 2Giga
  • BDupload
  • ClicknUpload
  • Filerio
  • FilesCDN
  • FilesUpload
  • Free
  • MegaUp
  • Nitroflare
  • Openload
  • ShareOnline
  • Turbobit
  • Tusfiles
  • Uppit
  • Uptobox
  • ddlTo
| MultiUp
  • BdUpload
  • DownAce
  • Fichier
  • FileCloud
  • Filerio
  • FilesCdn
  • IndiShare
  • Kbagi
  • Turbobit
  • UpToBox
  • Uppit
| Sendspace | SolidFiles | ZippyShare
HashesCRC32: 56DB38E1, MD5: 0B81E72AA1CE80209D8E401147027BE5, SHA1: CE02600E1B1F96540AFD69C8BF73F900DE607052, SHA256: 85858F6CB9C86EACF4E4DBCE279FA2976ADB6F45455C54BD52B3E26A24C10974, ED2K: E7EF16F82EEBA8B861D1090C46A890E3
Screenshots
screenshotscreenshotscreenshotscreenshotscreenshot
Additional Info
General
Complete name                            : ova3.mp4
Format                                   : MPEG-4
Format profile                           : Base Media / Version 2
Codec ID                                 : mp42 (mp41/isom)
File size                                : 225 MiB
Duration                                 : 11 min 50 s
Overall bit rate                         : 2 657 kb/s
Recorded date                            : 2020
Encoded date                             : UTC 2020-03-06 04:57:24
Tagged date                              : UTC 2020-03-06 05:06:21

Video
ID                                       : 1
Format                                   : AVC
Format/Info                              : Advanced Video Codec
Format profile                           : Main@L4
Format settings                          : CABAC / 1 Ref Frames
Format settings, CABAC                   : Yes
Format settings, ReFrames                : 1 frame
Format settings, GOP                     : M=1, N=30
Codec ID                                 : avc1
Codec ID/Info                            : Advanced Video Coding
Duration                                 : 11 min 50 s
Bit rate                                 : 2 457 kb/s
Width                                    : 1 920 pixels
Height                                   : 1 080 pixels
Display aspect ratio                     : 16:9
Frame rate mode                          : Constant
Frame rate                               : 30.000 FPS
Color space                              : YUV
Chroma subsampling                       : 4:2:0
Bit depth                                : 8 bits
Scan type                                : Progressive
Bits/(Pixel*Frame)                       : 0.039
Stream size                              : 208 MiB (92%)
Encoded date                             : UTC 2020-03-06 05:05:07
Tagged date                              : UTC 2020-03-06 05:05:07
mdhd_Duration                            : 710633
Codec configuration box                  : avcC

Audio
ID                                       : 2
Format                                   : AAC LC
Format/Info                              : Advanced Audio Codec Low Complexity
Codec ID                                 : mp4a-40-2
Duration                                 : 11 min 50 s
Bit rate mode                            : Constant
Bit rate                                 : 192 kb/s
Channel(s)                               : 2 channels
Channel layout                           : L R
Sampling rate                            : 48.0 kHz
Frame rate                               : 46.875 FPS (1024 SPF)
Compression mode                         : Lossy
Stream size                              : 16.6 MiB (7%)
Encoded date                             : UTC 2020-03-06 05:05:07
Tagged date                              : UTC 2020-03-06 05:05:07
mdhd_Duration                            : 710628
beta
Anime DDL+NZB mirror
Current Time: 23/05/2024 05:21



About/FAQs

Discord