OVA/S01OVA01-Remember, The Work Trip Is First And Foremost A Learning Opportunity, Part 1 [A9420D42].mkv


File Size225.8 MB (236,807,170 bytes)
DownloadAnonFiles | ClickNUpload | DownloadGG | KrakenFiles | MultiUp
  • BdUpload
  • DownAce
  • Fichier
  • FileCloud
  • Filerio
  • FilesCdn
  • IndiShare
  • Kbagi
  • Turbobit
  • UpToBox
  • Uppit
| ZippyShare
HashesCRC32: A9420D42, MD5: 5C18C7DD06B256F77F73C5FAB864D1D1, SHA1: 7EE6E26D02ED842A74A41C1ACD0EAA09CC3AE797, SHA256: 7F438059DB07F37C23B3D931748A2702DE0F02B2939405CBA9C0C59A715786B1, ED2K: 4D78E836B96780D535121C10AC3F9C0E
Screenshots
screenshotscreenshotscreenshotscreenshotscreenshot
SubtitlesAll Attachments | eng [ASS]
Additional Info
General
Unique ID                                : 248331195199083601411324923065195913744 (0xBAD2D93707A3756F9034CB0416816210)
Complete name                            : S01OVA01-Remember, The Work Trip Is First And Foremost A Learning Opportunity, Part 1 [A9420D42].mkv
Format                                   : Matroska
Format version                           : Version 4
File size                                : 226 MiB
Duration                                 : 14 min 8 s
Overall bit rate                         : 2 232 kb/s
Movie name                               : I'm.Quitting.Heroing.S01OVA01.1080p.BDRIp.10.bits.DD.x265-EMBER
Encoded date                             : UTC 2022-09-30 14:16:57
Writing application                      : mkvmerge v68.0.0 ('The Curtain') 64-bit
Writing library                          : libebml v1.4.2 + libmatroska v1.6.4
Cover                                    : Yes
Attachments                              : cover.jpg / Roboto-Medium.ttf

Video
ID                                       : 1
Format                                   : HEVC
Format/Info                              : High Efficiency Video Coding
Format profile                           : Main 10@L4.1@High
Codec ID                                 : V_MPEGH/ISO/HEVC
Duration                                 : 14 min 8 s
Bit rate                                 : 2 034 kb/s
Width                                    : 1 920 pixels
Height                                   : 1 080 pixels
Display aspect ratio                     : 16:9
Frame rate mode                          : Constant
Frame rate                               : 23.976 (24000/1001) FPS
Color space                              : YUV
Chroma subsampling                       : 4:2:0
Bit depth                                : 10 bits
Bits/(Pixel*Frame)                       : 0.041
Stream size                              : 206 MiB (91%)
Title                                    : Presented By EMBER
Writing library                          : x265 2.4+14-bc0e9bd7c08f5ddc:[Windows][GCC 6.3.0][64 bit] 10bit: KG7x [x265.ru]
Encoding settings                        : cpuid=1173503 / frame-threads=3 / numa-pools=8 / wpp / no-pmode / no-pme / no-psnr / no-ssim / log-level=2 / input-csp=1 / input-res=1920x1080 / interlace=0 / total-frames=0 / level-idc=41 / high-tier=1 / uhd-bd=0 / ref=4 / no-allow-non-conformance / no-repeat-headers / annexb / no-aud / no-hrd / info / hash=0 / no-temporal-layers / open-gop / min-keyint=23 / keyint=250 / bframes=8 / b-adapt=2 / b-pyramid / bframe-bias=0 / rc-lookahead=60 / lookahead-slices=4 / scenecut=40 / no-intra-refresh / ctu=64 / min-cu-size=8 / rect / no-amp / max-tu-size=32 / tu-inter-depth=2 / tu-intra-depth=2 / limit-tu=4 / rdoq-level=2 / dynamic-rd=0.00 / no-ssim-rd / signhide / no-tskip / nr-intra=0 / nr-inter=0 / no-constrained-intra / no-strong-intra-smoothing / max-merge=3 / limit-refs=3 / limit-modes / me=3 / subme=3 / merange=57 / temporal-mvp / weightp / no-weightb / no-analyze-src-pics / deblock=0:-1 / no-sao / no-sao-non-deblock / rd=4 / no-early-skip / rskip / no-fast-intra / no-tskip-fast / no-cu-lossless / no-b-intra / rdpenalty=0 / psy-rd=1.20 / psy-rdoq=2.00 / no-rd-refine / analysis-mode=0 / no-lossless / cbqpoffs=0 / crqpoffs=0 / rc=crf / crf=18.8 / qcomp=0.60 / qpstep=4 / stats-write=0 / stats-read=0 / vbv-maxrate=50000 / vbv-bufsize=50000 / vbv-init=0.9 / crf-max=0.0 / crf-min=0.0 / ipratio=1.40 / pbratio=1.30 / aq-mode=3 / aq-strength=0.90 / cutree / zone-count=0 / no-strict-cbr / qg-size=32 / no-rc-grain / qpmax=69 / qpmin=0 / sar=0 / overscan=0 / videoformat=5 / range=0 / colorprim=1 / transfer=1 / colormatrix=1 / chromaloc=0 / display-window=0 / max-cll=0,0 / min-luma=0 / max-luma=1023 / log2-max-poc-lsb=8 / vui-timing-info / vui-hrd-info / slices=1 / opt-qp-pps / opt-ref-list-length-pps / no-multi-pass-opt-rps / scenecut-bias=0.05 / no-opt-cu-delta-qp / no-aq-motion / no-hdr / no-hdr-opt / no-dhdr10-opt / refine-level=5 / no-limit-sao / ctu-info=0
Default                                  : Yes
Forced                                   : No
Color range                              : Limited
Color primaries                          : BT.709
Transfer characteristics                 : BT.709
Matrix coefficients                      : BT.709

Audio
ID                                       : 2
Format                                   : AC-3
Format/Info                              : Audio Coding 3
Commercial name                          : Dolby Digital
Codec ID                                 : A_AC3
Duration                                 : 14 min 8 s
Bit rate mode                            : Constant
Bit rate                                 : 192 kb/s
Channel(s)                               : 2 channels
Channel layout                           : L R
Sampling rate                            : 48.0 kHz
Frame rate                               : 31.250 FPS (1536 SPF)
Compression mode                         : Lossy
Stream size                              : 19.4 MiB (9%)
Language                                 : Japanese
Service kind                             : Complete Main
Default                                  : Yes
Forced                                   : No

Text
ID                                       : 3
Format                                   : ASS
Codec ID                                 : S_TEXT/ASS
Codec ID/Info                            : Advanced Sub Station Alpha
Duration                                 : 14 min 6 s
Bit rate                                 : 129 b/s
Count of elements                        : 221
Compression mode                         : Lossless
Stream size                              : 13.4 KiB (0%)
Language                                 : English
Default                                  : Yes
Forced                                   : No

Other Files in this Torrent
OVA/S01OVA01-Remember, The Work Trip Is First And Foremost A Learning Opportunity, Part 1 [A9420D42].mkv
beta
Anime DDL+NZB mirror
Current Time: 22/02/2024 22:09



About/FAQs

Discord