[Otoru] YUYUSHIKI - 07 [480p][AAC].mp4


File Size115.4 MB (121,042,890 bytes)
DownloadAnonFiles | EmbedUpload | FileWinds | Jheberg | MultiUpload | Sendspace | ShareBeast
HashesCRC32: 9AA10017, MD5: D1C41449F5CC30E8355BB69DA959ACBB, SHA1: 46A05EBBF4AA729EE915D15B46F34FE69A5C66D2, SHA256: 47DE2F1D4601816F8C9103B56A5B119A1CAA825F9D28AA45292F98BBB82586F5, ED2K: 90C6CBCE959B1D3CA14E6914A90D9DEE
Screenshots
screenshotscreenshotscreenshotscreenshotscreenshot
Additional Info
General
Complete name                            : [Otoru] YUYUSHIKI - 07 [480p][AAC].mp4
Format                                   : MPEG-4
Format profile                           : Base Media / Version 2
Codec ID                                 : mp42
File size                                : 115 MiB
Duration                                 : 23mn 40s
Overall bit rate mode                    : Variable
Overall bit rate                         : 681 Kbps
Encoded date                             : UTC 2013-05-21 20:27:45
Tagged date                              : UTC 2013-05-21 20:33:30
Writing application                      : HandBrake 5451svn 2013051201

Video
ID                                       : 1
Format                                   : AVC
Format/Info                              : Advanced Video Codec
Format profile                           : High@L3.0
Format settings, CABAC                   : Yes
Format settings, ReFrames                : 4 frames
Codec ID                                 : avc1
Codec ID/Info                            : Advanced Video Coding
Duration                                 : 23mn 40s
Bit rate mode                            : Variable
Bit rate                                 : 517 Kbps
Width                                    : 848 pixels
Height                                   : 480 pixels
Display aspect ratio                     : 16:9
Frame rate mode                          : Variable
Frame rate                               : 23.976 fps
Minimum frame rate                       : 23.256 fps
Maximum frame rate                       : 24.390 fps
Color space                              : YUV
Chroma subsampling                       : 4:2:0
Bit depth                                : 8 bits
Scan type                                : Progressive
Bits/(Pixel*Frame)                       : 0.053
Stream size                              : 87.5 MiB (76%)
Writing library                          : x264 core 130
Encoding settings                        : cabac=1 / ref=2 / deblock=1:0:0 / analyse=0x3:0x113 / me=hex / subme=4 / psy=1 / psy_rd=1.00:0.00 / mixed_ref=0 / me_range=16 / chroma_me=1 / trellis=1 / 8x8dct=1 / cqm=0 / deadzone=21,11 / fast_pskip=1 / chroma_qp_offset=0 / threads=6 / lookahead_threads=1 / sliced_threads=0 / nr=0 / decimate=1 / interlaced=0 / bluray_compat=0 / constrained_intra=0 / bframes=3 / b_pyramid=2 / b_adapt=1 / b_bias=0 / direct=1 / weightb=1 / open_gop=0 / weightp=1 / keyint=240 / keyint_min=24 / scenecut=40 / intra_refresh=0 / rc_lookahead=20 / rc=crf / mbtree=1 / crf=20.0 / qcomp=0.60 / qpmin=0 / qpmax=69 / qpstep=4 / ip_ratio=1.40 / aq=1:1.00
Encoded date                             : UTC 2013-05-21 20:27:45
Tagged date                              : UTC 2013-05-21 20:33:30
Color primaries                          : BT.601-6 525, BT.1358 525, BT.1700 NTSC, SMPTE 170M
Transfer characteristics                 : BT.709-5, BT.1361
Matrix coefficients                      : BT.601-6 525, BT.1358 525, BT.1700 NTSC, SMPTE 170M

Audio
ID                                       : 2
Format                                   : AAC
Format/Info                              : Advanced Audio Codec
Format profile                           : LC
Codec ID                                 : 40
Duration                                 : 23mn 40s
Bit rate mode                            : Variable
Bit rate                                 : 160 Kbps
Maximum bit rate                         : 306 Kbps
Channel(s)                               : 2 channels
Channel positions                        : Front: L R
Sampling rate                            : 44.1 KHz
Compression mode                         : Lossy
Delay relative to video                  : -83ms
Stream size                              : 27.1 MiB (23%)
Encoded date                             : UTC 2013-05-21 20:27:45
Tagged date                              : UTC 2013-05-21 20:33:30
beta
Anime DDL+NZB mirror
Current Time: 31/07/2021 02:33



About/FAQs