File Size396.1 MB (415,321,210 bytes)
DownloadAnonFiles | EmbedUpload | FileWinds | Jheberg | MirrorStack | MultiUpload
Sendspace: Part1, Part2
ShareBeast: Part1, Part2
HashesCRC32: DA672DF0, MD5: 3D8DF4256DB7E25669E286E53DD3428B, SHA1: 6913E0EE67868DDA3BD21B2C74971EA535F715BE, SHA256: 46B7522575CB5835DA86736554202EE07383E44C0440F96BE49854E646189F01, ED2K: AD2824149C3013244E06845DD59206C3
Screenshots
screenshotscreenshotscreenshotscreenshotscreenshot
Additional Info
General
Complete name                            : [Otoru] Hyakka Ryouran Samurai Bride - 07 [Unk][AAC].mp4
Format                                   : MPEG-4
Format profile                           : Base Media / Version 2
Codec ID                                 : mp42
File size                                : 396 MiB
Duration                                 : 24mn 0s
Overall bit rate mode                    : Variable
Overall bit rate                         : 2 307 Kbps
Movie name                               : [FFF] Hyakka Ryouran Samurai Bride - 07
Encoded date                             : UTC 2013-05-18 06:08:41
Tagged date                              : UTC 2013-05-18 06:21:50
Writing application                      : HandBrake 5451svn 2013051201

Video
ID                                       : 1
Format                                   : AVC
Format/Info                              : Advanced Video Codec
Format profile                           : High@L3.1
Format settings, CABAC                   : Yes
Format settings, ReFrames                : 4 frames
Codec ID                                 : avc1
Codec ID/Info                            : Advanced Video Coding
Duration                                 : 24mn 0s
Bit rate mode                            : Variable
Bit rate                                 : 2 142 Kbps
Width                                    : 1 280 pixels
Height                                   : 720 pixels
Display aspect ratio                     : 16:9
Frame rate mode                          : Variable
Frame rate                               : 23.976 fps
Minimum frame rate                       : 23.419 fps
Maximum frame rate                       : 24.390 fps
Color space                              : YUV
Chroma subsampling                       : 4:2:0
Bit depth                                : 8 bits
Scan type                                : Progressive
Bits/(Pixel*Frame)                       : 0.097
Stream size                              : 368 MiB (93%)
Writing library                          : x264 core 130
Encoding settings                        : cabac=1 / ref=2 / deblock=1:0:0 / analyse=0x3:0x113 / me=hex / subme=4 / psy=1 / psy_rd=1.00:0.00 / mixed_ref=0 / me_range=16 / chroma_me=1 / trellis=1 / 8x8dct=1 / cqm=0 / deadzone=21,11 / fast_pskip=1 / chroma_qp_offset=0 / threads=6 / lookahead_threads=1 / sliced_threads=0 / nr=0 / decimate=1 / interlaced=0 / bluray_compat=0 / constrained_intra=0 / bframes=3 / b_pyramid=2 / b_adapt=1 / b_bias=0 / direct=1 / weightb=1 / open_gop=0 / weightp=1 / keyint=240 / keyint_min=24 / scenecut=40 / intra_refresh=0 / rc_lookahead=20 / rc=crf / mbtree=1 / crf=20.0 / qcomp=0.60 / qpmin=0 / qpmax=69 / qpstep=4 / ip_ratio=1.40 / aq=1:1.00
Encoded date                             : UTC 2013-05-18 06:08:41
Tagged date                              : UTC 2013-05-18 06:21:50
Color primaries                          : BT.709-5, BT.1361, IEC 61966-2-4, SMPTE RP177
Transfer characteristics                 : BT.709-5, BT.1361
Matrix coefficients                      : BT.709-5, BT.1361, IEC 61966-2-4 709, SMPTE RP177

Audio
ID                                       : 2
Format                                   : AAC
Format/Info                              : Advanced Audio Codec
Format profile                           : LC
Codec ID                                 : 40
Duration                                 : 24mn 0s
Bit rate mode                            : Variable
Bit rate                                 : 160 Kbps
Maximum bit rate                         : 306 Kbps
Channel(s)                               : 2 channels
Channel positions                        : Front: L R
Sampling rate                            : 48.0 KHz
Compression mode                         : Lossy
Delay relative to video                  : -83ms
Stream size                              : 27.5 MiB (7%)
Language                                 : Japanese
Encoded date                             : UTC 2013-05-18 06:08:41
Tagged date                              : UTC 2013-05-18 06:21:49
beta
Anime DDL+NZB mirror
Current Time: 24/07/2021 23:06



About/FAQs