Otoko Ippiki Gaki Daisho (1969) [HnG - TSHS] serial 01, part 4 [B02A5E29].mp4


File Size85.92 MB (90,093,064 bytes)
DownloadClickNUpload | Jheberg | MultiUp
  • BdUpload
  • DownAce
  • Fichier
  • FileCloud
  • Filerio
  • FilesCdn
  • IndiShare
  • Kbagi
  • Turbobit
  • UpToBox
  • Uppit
| OpenLoad | Sendspace | SolidFiles | ZippyShare
HashesCRC32: B02A5E29, MD5: FC442CFA8A3D74E88BBA42B92F639055, SHA1: 26320C23E8E151A8B63A1768CA488657050CCA20, SHA256: 0169E1B04E2DF8ED8CE6977F071BD63B9788A84F1623BD6838A0FA4BD9B14588, ED2K: E278E47EDB341E72C3E7A2B5F9E8BDD4
Screenshots
screenshotscreenshotscreenshotscreenshotscreenshot
Additional Info
General
Complete name                            : Otoko Ippiki Gaki Daisho (1969) [HnG - TSHS] serial 01, part 4 [B02A5E29].mp4
Format                                   : MPEG-4
Format profile                           : Base Media
Codec ID                                 : isom (isom)
File size                                : 85.9 MiB
Duration                                 : 7 min 19 s
Overall bit rate mode                    : Variable
Overall bit rate                         : 1 640 kb/s
Movie name                               : Otoko Ippiki Gaki Daisho Serial 01: The Village's Biggest Bluffer (Part 4)
Genre                                    : Anime
Recorded date                            : 1969
Encoded date                             : UTC 2019-06-08 10:44:53
Tagged date                              : UTC 2019-06-08 10:44:53
Xtra                                     : WM/ContentDistributor

Video
ID                                       : 1
Format                                   : AVC
Format/Info                              : Advanced Video Codec
Format profile                           : Baseline@L3
Format settings                          : 6 Ref Frames
Format settings, CABAC                   : No
Format settings, ReFrames                : 6 frames
Codec ID                                 : avc1
Codec ID/Info                            : Advanced Video Coding
Duration                                 : 7 min 19 s
Bit rate                                 : 1 500 kb/s
Maximum bit rate                         : 3 290 kb/s
Width                                    : 640 pixels
Height                                   : 480 pixels
Display aspect ratio                     : 4:3
Frame rate mode                          : Constant
Frame rate                               : 23.976 (24000/1001) FPS
Color space                              : YUV
Chroma subsampling                       : 4:2:0
Bit depth                                : 8 bits
Scan type                                : Progressive
Bits/(Pixel*Frame)                       : 0.204
Stream size                              : 78.5 MiB (91%)
Writing library                          : x264 core 146 r2538 121396c
Encoding settings                        : cabac=0 / ref=6 / deblock=1:-1:-1 / analyse=0x1:0x111 / me=tesa / subme=9 / psy=1 / psy_rd=1.00:0.00 / mixed_ref=0 / me_range=16 / chroma_me=1 / trellis=1 / 8x8dct=0 / cqm=0 / deadzone=21,11 / fast_pskip=0 / chroma_qp_offset=-2 / threads=6 / lookahead_threads=1 / sliced_threads=0 / nr=0 / decimate=0 / interlaced=0 / bluray_compat=0 / constrained_intra=0 / bframes=0 / weightp=0 / keyint=250 / keyint_min=23 / scenecut=40 / intra_refresh=0 / rc_lookahead=250 / rc=2pass / mbtree=1 / bitrate=1500 / ratetol=1.0 / qcomp=0.60 / qpmin=10 / qpmax=69 / qpstep=4 / cplxblur=20.0 / qblur=0.5 / ip_ratio=1.40 / aq=1:1.00
Tagged date                              : UTC 2019-06-08 10:45:06
Menus                                    : 3
Codec configuration box                  : avcC

Audio
ID                                       : 2
Format                                   : AAC LC SBR
Format/Info                              : Advanced Audio Codec Low Complexity with Spectral Band Replication
Commercial name                          : HE-AAC
Format settings                          : Explicit
Codec ID                                 : mp4a-40-2
Duration                                 : 7 min 19 s
Bit rate mode                            : Variable
Bit rate                                 : 139 kb/s
Maximum bit rate                         : 149 kb/s
Channel(s)                               : 2 channels
Channel layout                           : L R
Sampling rate                            : 48.0 kHz
Frame rate                               : 23.438 FPS (2048 SPF)
Compression mode                         : Lossy
Stream size                              : 7.30 MiB (8%)
Encoded date                             : UTC 2019-06-08 10:45:06
Tagged date                              : UTC 2019-06-08 10:45:06

Menu #1
ID                                       : 3
Duration                                 : 7 min 19 s
Tagged date                              : UTC 2019-06-08 10:45:06
Menu For                                 : 1
Source duration                          : 1000
Source frame count                       : 1
Source stream size                       : 2
Frame count                              : 440
Stream size                              : 880

Menu #2
00:00:00.000                             : OP: "Otoko Ippiki Gaki Daisho"
00:00:57.010                             : Serial 01: "The Village's Biggest Bluffer" Part 4
beta
Anime DDL+NZB mirror
Current Time: 23/07/2019 12:22



About/FAQs