File Size15.50 MB (16,249,690 bytes)
DownloadClickNUpload | Jheberg | MultiUp
  • BdUpload
  • DownAce
  • Fichier
  • FileCloud
  • Filerio
  • FilesCdn
  • IndiShare
  • Kbagi
  • Turbobit
  • UpToBox
  • Uppit
| Sendspace | SolidFiles | UploadFiles | ZippyShare
HashesCRC32: F8714BA6, MD5: 62DEF321CD1C4AF9ADE62B34BAD86521, SHA1: AC09AD42C389EF9233D4FAE4560A4D367D10F239, SHA256: 3627663208AC583AFEFDA4C4AE50EC439597A61E476EE5731C0F00ED97DFF0C0, ED2K: 6B8D4E9A4BCD9015605E1B39350319C0
Screenshots
screenshot
Additional Info
General
Complete name                            : One-Punch Man (2019) - 10 - Sneak Peek [KaiDubs] [AS-1080p] [F8714BA6].mp4
Format                                   : MPEG-4
Format profile                           : Base Media
Codec ID                                 : isom (isom/iso2/avc1/mp41)
File size                                : 15.5 MiB
Duration                                 : 14 s 982 ms
Overall bit rate mode                    : Constant
Overall bit rate                         : 8 677 kb/s
Writing application                      : Lavf58.33.100

Video
ID                                       : 1
Format                                   : AVC
Format/Info                              : Advanced Video Codec
Format profile                           : High@L4
Format settings                          : CABAC / 2 Ref Frames
Format settings, CABAC                   : Yes
Format settings, ReFrames                : 2 frames
Codec ID                                 : avc1
Codec ID/Info                            : Advanced Video Coding
Duration                                 : 14 s 982 ms
Bit rate mode                            : Constant
Bit rate                                 : 8 500 kb/s
Width                                    : 1 920 pixels
Height                                   : 1 080 pixels
Display aspect ratio                     : 16:9
Frame rate mode                          : Constant
Frame rate                               : 29.970 (30000/1001) FPS
Color space                              : YUV
Chroma subsampling                       : 4:2:0
Bit depth                                : 8 bits
Scan type                                : Progressive
Bits/(Pixel*Frame)                       : 0.137
Stream size                              : 15.3 MiB (98%)
Codec configuration box                  : avcC

Audio
ID                                       : 2
Format                                   : AAC LC
Format/Info                              : Advanced Audio Codec Low Complexity
Codec ID                                 : mp4a-40-2
Duration                                 : 14 s 977 ms
Bit rate mode                            : Constant
Bit rate                                 : 126 kb/s
Channel(s)                               : 2 channels
Channel layout                           : L R
Sampling rate                            : 44.1 kHz
Frame rate                               : 43.066 FPS (1024 SPF)
Compression mode                         : Lossy
Stream size                              : 230 KiB (1%)
Language                                 : English
Default                                  : Yes
Alternate group                          : 1
beta
Anime DDL+NZB mirror
Current Time: 08/04/2020 01:13



About/FAQs