File Size15.54 MB (16,300,027 bytes)
DownloadClickNUpload | Jheberg | MultiUp
  • BdUpload
  • DownAce
  • Fichier
  • FileCloud
  • Filerio
  • FilesCdn
  • IndiShare
  • Kbagi
  • Turbobit
  • UpToBox
  • Uppit
| Sendspace | SolidFiles | ZippyShare
HashesCRC32: 5D529A6A, MD5: 9C2AA7345F9996D7804E25147611E20C, SHA1: D654D728AEC4C781050B5126983410964F69B89F, SHA256: BF422D3CDF6DF0CD672E6E7773B75309AB3A3D292ED9FA176D59A4A3A1FF1C1A, ED2K: FF374736A0BB9422E52D8A02B0F20497
Screenshots
screenshot
Additional Info
General
Complete name                            : One-Punch Man (2019) - 09 - Sneak Peek [KaiDubs] [AS-1080p] [5D529A6A].mp4
Format                                   : MPEG-4
Format profile                           : Base Media
Codec ID                                 : isom (isom/iso2/avc1/mp41)
File size                                : 15.5 MiB
Duration                                 : 14 s 982 ms
Overall bit rate mode                    : Constant
Overall bit rate                         : 8 704 kb/s
Writing application                      : Lavf58.33.100

Video
ID                                       : 1
Format                                   : AVC
Format/Info                              : Advanced Video Codec
Format profile                           : High@L4
Format settings                          : CABAC / 2 Ref Frames
Format settings, CABAC                   : Yes
Format settings, ReFrames                : 2 frames
Codec ID                                 : avc1
Codec ID/Info                            : Advanced Video Coding
Duration                                 : 14 s 982 ms
Bit rate mode                            : Constant
Bit rate                                 : 8 500 kb/s
Width                                    : 1 920 pixels
Height                                   : 1 080 pixels
Display aspect ratio                     : 16:9
Frame rate mode                          : Constant
Frame rate                               : 29.970 (30000/1001) FPS
Color space                              : YUV
Chroma subsampling                       : 4:2:0
Bit depth                                : 8 bits
Scan type                                : Progressive
Bits/(Pixel*Frame)                       : 0.137
Stream size                              : 15.3 MiB (98%)
Codec configuration box                  : avcC

Audio
ID                                       : 2
Format                                   : AAC LC
Format/Info                              : Advanced Audio Codec Low Complexity
Codec ID                                 : mp4a-40-2
Duration                                 : 14 s 977 ms
Bit rate mode                            : Constant
Bit rate                                 : 126 kb/s
Channel(s)                               : 2 channels
Channel layout                           : L R
Sampling rate                            : 44.1 kHz
Frame rate                               : 43.066 FPS (1024 SPF)
Compression mode                         : Lossy
Stream size                              : 230 KiB (1%)
Language                                 : English
Default                                  : Yes
Alternate group                          : 1
beta
Anime DDL+NZB mirror
Current Time: 29/09/2020 23:06



About/FAQs