File Size16.07 MB (16,852,535 bytes)
DownloadClickNUpload | Jheberg | MultiUp
  • BdUpload
  • DownAce
  • Fichier
  • FileCloud
  • Filerio
  • FilesCdn
  • IndiShare
  • Kbagi
  • Turbobit
  • UpToBox
  • Uppit
| Sendspace | SolidFiles | ZippyShare
HashesCRC32: F6369E3C, MD5: FC8446C512F734B9132795E0248A14CC, SHA1: E14D7D4E75977F86B5F58AF48152037CC7EFB087, SHA256: 946043AAC7B54A5DCF9921D5D1CCF3C7CF3F3C025A8DDA0A8A3460C9152A1B9C, ED2K: 01B4895D42FCAA96C1DD28E065B44C7C
Screenshots
screenshot
Additional Info
General
Complete name                            : One-Punch Man (2019) - 08 - Sneak Peek [KaiDubs] [AS-1080p] [F6369E3C].mp4
Format                                   : MPEG-4
Format profile                           : Base Media
Codec ID                                 : isom (isom/iso2/avc1/mp41)
File size                                : 16.1 MiB
Duration                                 : 14 s 982 ms
Overall bit rate mode                    : Constant
Overall bit rate                         : 8 999 kb/s
Writing application                      : Lavf58.33.100

Video
ID                                       : 1
Format                                   : AVC
Format/Info                              : Advanced Video Codec
Format profile                           : High@L4
Format settings                          : CABAC / 2 Ref Frames
Format settings, CABAC                   : Yes
Format settings, ReFrames                : 2 frames
Codec ID                                 : avc1
Codec ID/Info                            : Advanced Video Coding
Duration                                 : 14 s 982 ms
Bit rate mode                            : Constant
Bit rate                                 : 8 500 kb/s
Width                                    : 1 920 pixels
Height                                   : 1 080 pixels
Display aspect ratio                     : 16:9
Frame rate mode                          : Constant
Frame rate                               : 29.970 (30000/1001) FPS
Color space                              : YUV
Chroma subsampling                       : 4:2:0
Bit depth                                : 8 bits
Scan type                                : Progressive
Bits/(Pixel*Frame)                       : 0.137
Stream size                              : 15.8 MiB (98%)
Codec configuration box                  : avcC

Audio
ID                                       : 2
Format                                   : AAC LC
Format/Info                              : Advanced Audio Codec Low Complexity
Codec ID                                 : mp4a-40-2
Duration                                 : 14 s 977 ms
Bit rate mode                            : Constant
Bit rate                                 : 126 kb/s
Channel(s)                               : 2 channels
Channel layout                           : L R
Sampling rate                            : 44.1 kHz
Frame rate                               : 43.066 FPS (1024 SPF)
Compression mode                         : Lossy
Stream size                              : 230 KiB (1%)
Language                                 : English
Default                                  : Yes
Alternate group                          : 1
beta
Anime DDL+NZB mirror
Current Time: 25/05/2024 07:24



About/FAQs

Discord