[ ͡° ͜ʖ ͡° ] One Piece Film Gold ENG SUB [WEB-DL][HQ][480p][AVC][AAC].mp4


File Size738.8 MB (774,720,300 bytes)
DownloadGo4Up | Jheberg | MultiUp | OpenLoad | UsersCloud
Sendspace: Part1, Part2, Part3
SolidFiles: Part1, Part2
Encrypted DownloadDirect
Password:
HashesCRC32: 628A1C20, MD5: 10AB3281A0112E27A6FA05E6C7FFC5D8, SHA1: 4A8938735BE0B14196E8B95981E959CF375F082D, SHA256: 6CA8A3CB49C56D5753AF7351F146098B8158089309549FE3523D627053E8F818, ED2K: 81D2160F2D69C017F12A455B26B0FACD
Screenshots
screenshotscreenshotscreenshotscreenshotscreenshot
Additional Info
General
Complete name                            : [ ͡° ͜ʖ ͡° ] One Piece Film Gold ENG SUB [WEB-DL][HQ][480p][AVC][AAC].mp4
Format                                   : MPEG-4
Format profile                           : Base Media / Version 2
Codec ID                                 : mp42 (isom/mp42)
File size                                : 739 MiB
Duration                                 : 1 h 56 min
Overall bit rate mode                    : Variable
Overall bit rate                         : 888 kb/s
Encoded date                             : UTC 2016-12-13 18:41:14
Tagged date                              : UTC 2016-12-13 18:41:14
gsst                                     : 0
gstd                                     : 6983376

Video
ID                                       : 1
Format                                   : AVC
Format/Info                              : Advanced Video Codec
Format profile                           : Main@L3
Format settings, CABAC                   : Yes
Format settings, ReFrames                : 3 frames
Format settings, GOP                     : M=1, N=48
Codec ID                                 : avc1
Codec ID/Info                            : Advanced Video Coding
Duration                                 : 1 h 56 min
Bit rate                                 : 757 kb/s
Maximum bit rate                         : 3 616 kb/s
Width                                    : 854 pixels
Height                                   : 462 pixels
Display aspect ratio                     : 1.85:1
Frame rate mode                          : Constant
Frame rate                               : 23.976 (24000/1001) FPS
Color space                              : YUV
Chroma subsampling                       : 4:2:0
Bit depth                                : 8 bits
Scan type                                : Progressive
Bits/(Pixel*Frame)                       : 0.080
Stream size                              : 630 MiB (85%)
Encoded date                             : UTC 1904-01-01 00:00:00
Tagged date                              : UTC 2016-12-13 18:43:54
Color range                              : Limited
Color primaries                          : BT.709
Transfer characteristics                 : BT.709
Matrix coefficients                      : BT.709

Audio
ID                                       : 2
Format                                   : AAC
Format/Info                              : Advanced Audio Codec
Format profile                           : LC
Codec ID                                 : 40
Duration                                 : 1 h 56 min
Bit rate mode                            : Variable
Bit rate                                 : 128 kb/s
Maximum bit rate                         : 137 kb/s
Channel(s)                               : 2 channels
Channel positions                        : Front: L R
Sampling rate                            : 44.1 kHz
Frame rate                               : 43.066 FPS (1024 spf)
Compression mode                         : Lossy
Stream size                              : 107 MiB (14%)
Title                                    : IsoMedia File Produced by Google, 5-11-2011
Encoded date                             : UTC 2016-12-13 18:42:37
Tagged date                              : UTC 2016-12-13 18:43:54
beta
Anime DDL+NZB mirror
Current Time: 21/10/2017 03:08



About/FAQs