One Piece - 761 - The Time Limit Closes in! The Bond Between the Mink Tribe and the Crew! [1080p][x264][AAC][Eng-Sub]-df68.mkv


File Size1.338 GB (1,436,665,083 bytes)
DownloadClickNUpload | Jheberg
MultiUp: Part1
  • BdUpload
  • DownAce
  • Fichier
  • FileCloud
  • Filerio
  • FilesCdn
  • IndiShare
  • Kbagi
  • Turbobit
  • UpToBox
  • Uppit
, Part2
  • BdUpload
  • DownAce
  • Fichier
  • FileCloud
  • Filerio
  • FilesCdn
  • IndiShare
  • Kbagi
  • Turbobit
  • UpToBox
  • Uppit
, Part3
  • BdUpload
  • DownAce
  • Fichier
  • FileCloud
  • Filerio
  • FilesCdn
  • IndiShare
  • Kbagi
  • Turbobit
  • UpToBox
  • Uppit

OpenLoad: Part1, Part2
Sendspace: Part1, Part2, Part3, Part4, Part5
SolidFiles: Part1, Part2, Part3
ZippyShare: Part1, Part2, Part3
HashesCRC32: AF2722D3, MD5: 86A1F9989E2DABB3DA738A6D16F8D3A8, SHA1: 0CA59FDBD0A928C2887209B74F88EECA6D611830, SHA256: A33F477A10C1845A65695FAD8505E8664CB58A8FF80CE615BD8599F033BC1BE1, ED2K: 90E56067F2066D604A2FD3CEB1C0F824
Screenshots
screenshotscreenshotscreenshotscreenshotscreenshot
SubtitlesAll Attachments | English Subtitle [eng, ASS]
Additional Info
General
Unique ID                                : 193171635751044643130177635532567664783 (0x915380F710C372B79D8BA01B92D6D88F)
Complete name                            : One Piece - 761 - The Time Limit Closes in! The Bond Between the Mink Tribe and the Crew! [1080p][x264][AAC][Eng-Sub]-df68.mkv
Format                                   : Matroska
Format version                           : Version 4
File size                                : 1.34 GiB
Duration                                 : 23 min 40 s
Overall bit rate                         : 8 094 kb/s
Encoded date                             : UTC 2019-09-18 20:34:53
Writing application                      : mkvmerge v7.3.0 ('Nouages') 64bit built on Oct 22 2014 18:53:34
Writing library                          : libebml v1.3.0 + libmatroska v1.4.1
Attachments                              : Aero Matics Display Regular.v1.45.ttf / AGENCYB.TTF / Anderson_Fireball_XL5.ttf / AntiqueStd-ANB_yibis.otf / Designosaur-Regular.ttf / eirik-raude.regular.ttf / Impress BT.ttf / Impress-Yibis.ttf / poneglyph.ttf / Roboto-Bold.ttf / Roboto-Bold_0.ttf / Roboto-Bold-Yibis.ttf

Video
ID                                       : 1
Format                                   : AVC
Format/Info                              : Advanced Video Codec
Format profile                           : High@L4.1
Format settings                          : CABAC / 4 Ref Frames
Format settings, CABAC                   : Yes
Format settings, ReFrames                : 4 frames
Codec ID                                 : V_MPEG4/ISO/AVC
Duration                                 : 23 min 40 s
Bit rate                                 : 7 952 kb/s
Width                                    : 1 920 pixels
Height                                   : 1 080 pixels
Display aspect ratio                     : 16:9
Frame rate mode                          : Constant
Frame rate                               : 23.976 (24000/1001) FPS
Color space                              : YUV
Chroma subsampling                       : 4:2:0
Bit depth                                : 8 bits
Scan type                                : Progressive
Bits/(Pixel*Frame)                       : 0.160
Stream size                              : 1.31 GiB (98%)
Title                                    : encoded by darkfire68
Writing library                          : x264 core 157 r2969 d4099dd
Encoding settings                        : cabac=1 / ref=4 / deblock=1:1:1 / analyse=0x3:0x133 / me=umh / subme=10 / psy=1 / psy_rd=0.50:0.00 / mixed_ref=0 / me_range=32 / chroma_me=1 / trellis=2 / 8x8dct=1 / cqm=0 / deadzone=21,11 / fast_pskip=0 / chroma_qp_offset=-5 / threads=18 / lookahead_threads=4 / sliced_threads=0 / nr=0 / decimate=1 / interlaced=0 / bluray_compat=0 / constrained_intra=0 / bframes=16 / b_pyramid=2 / b_adapt=2 / b_bias=0 / direct=3 / weightb=1 / open_gop=0 / weightp=2 / keyint=240 / keyint_min=23 / scenecut=40 / intra_refresh=0 / rc_lookahead=50 / rc=crf / mbtree=1 / crf=16.0 / qcomp=0.60 / qpmin=0 / qpmax=69 / qpstep=4 / vbv_maxrate=62500 / vbv_bufsize=78125 / crf_max=0.0 / nal_hrd=none / filler=0 / ip_ratio=1.40 / aq=1:1.00
Language                                 : Japanese
Default                                  : Yes
Forced                                   : No

Audio
ID                                       : 2
Format                                   : AAC LC
Format/Info                              : Advanced Audio Codec Low Complexity
Codec ID                                 : A_AAC-2
Duration                                 : 23 min 40 s
Bit rate                                 : 128 kb/s
Channel(s)                               : 2 channels
Channel layout                           : L R
Sampling rate                            : 44.1 kHz
Frame rate                               : 43.066 FPS (1024 SPF)
Compression mode                         : Lossy
Stream size                              : 21.7 MiB (2%)
Title                                    : Japanese Audio
Language                                 : Japanese
Default                                  : Yes
Forced                                   : No

Text
ID                                       : 3
Format                                   : ASS
Codec ID                                 : S_TEXT/ASS
Codec ID/Info                            : Advanced Sub Station Alpha
Duration                                 : 23 min 34 s
Bit rate                                 : 1 073 b/s
Count of elements                        : 1677
Compression mode                         : Lossless
Stream size                              : 185 KiB (0%)
Title                                    : English Subtitle
Language                                 : English
Default                                  : Yes
Forced                                   : No

Other Files in this Torrent
One Piece - 761 - The Time Limit Closes in! The Bond Between the Mink Tribe and the Crew! [1080p][x264][AAC][Eng-Sub]-df68.mkv
beta
Anime DDL+NZB mirror
Current Time: 15/12/2019 11:10



About/FAQs