[OldCastle] Ashita e Attack - 05 [F9CB1005].mkv


File Size274.5 MB (287,827,974 bytes)
DownloadAnonFiles | ClickNUpload | DropAPK | Free | MultiUp
  • BdUpload
  • DownAce
  • Fichier
  • FileCloud
  • Filerio
  • FilesCdn
  • IndiShare
  • Kbagi
  • Turbobit
  • UpToBox
  • Uppit
| Sendspace | SolidFiles | ZippyShare
HashesCRC32: F9CB1005, MD5: 2C3609D1C4002A9B3579C85CEBC262DA, SHA1: AB52144D85D28A2156FFB908B00DFF7863A24977, SHA256: D3D13034EC9950D1DE1D2F646ECF727922F0B02680DE12BF80D4D61E43F18F92, ED2K: B55E1487DBF83BDA44852A5F3DF774AE
Screenshots
screenshotscreenshotscreenshotscreenshotscreenshot
SubtitlesAll Attachments | eng [ASS], pol [ASS]
Additional Info
General
Unique ID                                : 101989246661829355244110892078433563634 (0x4CBA6A171C81D6CC389BE532279FF3F2)
Complete name                            : [OldCastle] Ashita e Attack - 05 [F9CB1005].mkv
Format                                   : Matroska
Format version                           : Version 4
File size                                : 274 MiB
Duration                                 : 23 min 29 s
Overall bit rate                         : 1 634 kb/s
Movie name                               : Ashita e Attack - 05
Encoded date                             : UTC 2020-04-06 20:22:34
Writing application                      : mkvmerge v19.0.0 ('Brave Captain') 64-bit
Writing library                          : libebml v1.3.5 + libmatroska v1.4.8
Attachments                              : Engcomica.otf / GothamRnd-Bold.otf
IsTruncated                              : Yes

Video
ID                                       : 1
Format                                   : AVC
Format/Info                              : Advanced Video Codec
Format profile                           : Main@L3
Format settings                          : CABAC / 4 Ref Frames
Format settings, CABAC                   : Yes
Format settings, ReFrames                : 4 frames
Codec ID                                 : V_MPEG4/ISO/AVC
Duration                                 : 23 min 28 s
Bit rate                                 : 1 502 kb/s
Width                                    : 640 pixels
Height                                   : 480 pixels
Display aspect ratio                     : 4:3
Frame rate mode                          : Constant
Frame rate                               : 30.000 FPS
Color space                              : YUV
Chroma subsampling                       : 4:2:0
Bit depth                                : 8 bits
Scan type                                : Progressive
Bits/(Pixel*Frame)                       : 0.163
Stream size                              : 252 MiB (92%)
Writing library                          : Zencoder Video Encoding System
Default                                  : Yes
Forced                                   : No

Audio
ID                                       : 2
Format                                   : AAC LC
Format/Info                              : Advanced Audio Codec Low Complexity
Codec ID                                 : A_AAC-2
Duration                                 : 23 min 28 s
Bit rate                                 : 128 kb/s
Channel(s)                               : 2 channels
Channel layout                           : L R
Sampling rate                            : 48.0 kHz
Frame rate                               : 46.875 FPS (1024 SPF)
Compression mode                         : Lossy
Delay relative to video                  : -109 ms
Stream size                              : 21.5 MiB (8%)
Default                                  : Yes
Forced                                   : No

Text #1
ID                                       : 3
Format                                   : ASS
Codec ID                                 : S_TEXT/ASS
Codec ID/Info                            : Advanced Sub Station Alpha
Duration                                 : 23 min 17 s
Bit rate                                 : 145 b/s
Count of elements                        : 297
Compression mode                         : Lossless
Stream size                              : 24.9 KiB (0%)
Language                                 : English
Default                                  : Yes
Forced                                   : No

Text #2
ID                                       : 4
Format                                   : ASS
Codec ID                                 : S_TEXT/ASS
Codec ID/Info                            : Advanced Sub Station Alpha
Duration                                 : 23 min 17 s
Bit rate                                 : 147 b/s
Count of elements                        : 295
Compression mode                         : Lossless
Stream size                              : 25.1 KiB (0%)
Language                                 : Polish
Default                                  : No
Forced                                   : No

Menu
00:00:00.100                             : en:Opening - pl:Opening
00:01:11.470                             : en:Title screen - pl:Plansza tytułowa
00:01:21.470                             : en:Part A - pl:Część A
00:11:03.070                             : en:Part B - pl:Część B
00:21:47.600                             : en:Preview - pl:Zapowiedź
00:22:17.600                             : en:Ending - pl:Ending
beta
Anime DDL+NZB mirror
Current Time: 20/04/2021 13:53



About/FAQs