File Size629.1 MB (659,614,676 bytes)
DownloadClickNUpload | DownloadGG | KrakenFiles
MultiUp: Part1
  • BdUpload
  • DownAce
  • Fichier
  • FileCloud
  • Filerio
  • FilesCdn
  • IndiShare
  • Kbagi
  • Turbobit
  • UpToBox
  • Uppit
, Part2
  • BdUpload
  • DownAce
  • Fichier
  • FileCloud
  • Filerio
  • FilesCdn
  • IndiShare
  • Kbagi
  • Turbobit
  • UpToBox
  • Uppit

ZippyShare: Part1, Part2
HashesCRC32: 3960E3F6, MD5: 51BB80A86E761309AB68D26EF23637D5, SHA1: 1D67E18F70321A2E845906D253AAB78574C4BBDE, SHA256: FC1629296635EA494DF1776A8605F111ECCC147302ADC469FD58181F29BDEF0B, ED2K: 151018B4E01142B6944DE73C86D4E985
Screenshots
screenshotscreenshotscreenshotscreenshotscreenshot
SubtitlesAll Attachments | eng [ASS], Honorifics [enm, ASS]
Additional Info
General
Unique ID                                : 325477006917001596770948675798558827239 (0xF4DC9764E1FB68089C47C42CBC63E2E7)
Complete name                            : [Okay-Subs] Paripi Koumei - 11 [3960E3F6].mkv
Format                                   : Matroska
Format version                           : Version 4
File size                                : 629 MiB
Duration                                 : 24 min 25 s
Overall bit rate                         : 3 601 kb/s
Encoded date                             : UTC 2022-06-09 23:55:48
Writing application                      : mkvmerge v66.0.0 ('Josie') 64-bit
Writing library                          : libebml v1.4.2 + libmatroska v1.6.4
Attachments                              : AlegreyaSans-Black.ttf / arialbd.ttf / arialbi.ttf / Cronos-Pro.ttf / GandhiSans-BoldItalic_0.otf / GandhiSans-Bold_0.otf / No more lies (kinda stamp).ttf / NotoSans-Medium.ttf

Video
ID                                       : 1
Format                                   : HEVC
Format/Info                              : High Efficiency Video Coding
Format profile                           : Main@L5@Main
Codec ID                                 : V_MPEGH/ISO/HEVC
Duration                                 : 23 min 40 s
Bit rate                                 : 3 502 kb/s
Width                                    : 1 920 pixels
Height                                   : 1 080 pixels
Display aspect ratio                     : 16:9
Frame rate mode                          : Constant
Frame rate                               : 23.976 (24000/1001) FPS
Original frame rate                      : 23.976 (23976/1000) FPS
Color space                              : YUV
Chroma subsampling                       : 4:2:0
Bit depth                                : 8 bits
Bits/(Pixel*Frame)                       : 0.070
Stream size                              : 593 MiB (94%)
Default                                  : Yes
Forced                                   : No
Color range                              : Limited
Color primaries                          : BT.709
Transfer characteristics                 : BT.709
Matrix coefficients                      : BT.709

Audio
ID                                       : 2
Format                                   : AAC LC
Format/Info                              : Advanced Audio Codec Low Complexity
Codec ID                                 : A_AAC-2
Duration                                 : 24 min 25 s
Bit rate                                 : 159 kb/s
Channel(s)                               : 2 channels
Channel layout                           : L R
Sampling rate                            : 48.0 kHz
Frame rate                               : 46.875 FPS (1024 SPF)
Compression mode                         : Lossy
Stream size                              : 27.8 MiB (4%)
Language                                 : Japanese
Default                                  : Yes
Forced                                   : No

Text #1
ID                                       : 3
Format                                   : ASS
Codec ID                                 : S_TEXT/ASS
Codec ID/Info                            : Advanced Sub Station Alpha
Duration                                 : 23 min 35 s
Bit rate                                 : 12.8 kb/s
Count of elements                        : 12477
Compression mode                         : Lossless
Stream size                              : 2.16 MiB (0%)
Language                                 : English
Default                                  : Yes
Forced                                   : No

Text #2
ID                                       : 4
Format                                   : ASS
Codec ID                                 : S_TEXT/ASS
Codec ID/Info                            : Advanced Sub Station Alpha
Duration                                 : 23 min 35 s
Bit rate                                 : 12.8 kb/s
Count of elements                        : 12477
Compression mode                         : Lossless
Stream size                              : 2.16 MiB (0%)
Title                                    : Honorifics
Language                                 : enm
Default                                  : Yes
Forced                                   : No

Menu
00:00:00.033                             : en:Intro
00:02:45.010                             : en:OP
00:04:15.000                             : en:Episode
00:22:10.030                             : en:ED
beta
Anime DDL+NZB mirror
Current Time: 14/06/2024 18:36



About/FAQs

Discord