File Size261.5 MB (274,244,407 bytes)
DownloadClickNUpload | Jheberg | MultiUp
  • BdUpload
  • DownAce
  • Fichier
  • FileCloud
  • Filerio
  • FilesCdn
  • IndiShare
  • Kbagi
  • Turbobit
  • UpToBox
  • Uppit
| OpenLoad | Sendspace | SolidFiles | ZippyShare
HashesCRC32: 25004D82, MD5: 04F5987BE121312C8E2CA2B0EA429E47, SHA1: E33F41E9D5AEECF0974B1C89CAE5EE3FF51CD1C9, SHA256: 1A421D30D34C84052D3FA240834CE1D93D553162760701D5B53BB59E0F3C6E02, ED2K: 573E434083775768D0B9A39A7DEF93EF
Screenshots
screenshotscreenshotscreenshotscreenshotscreenshot
SubtitlesAll Attachments | eng [ASS]
Additional Info
General
Unique ID                                : 100820691296641563872583659885749852761 (0x4BD95BDCD207ACC2047464ACC743DA59)
Complete name                            : [Okay-Subs] Araburu Kisetsu no Otome-domo yo. - 01 [25004D82].mkv
Format                                   : Matroska
Format version                           : Version 4
File size                                : 262 MiB
Duration                                 : 24 min 54 s
Overall bit rate                         : 1 468 kb/s
Encoded date                             : UTC 2019-09-11 04:21:01
Writing application                      : mkvmerge v19.0.0 ('Brave Captain') 64-bit
Writing library                          : libebml v1.3.5 + libmatroska v1.4.8
Attachments                              : ARIAL-BOLDMT-STR.TTF / GandhiSans-Bold.otf / GandhiSans-BoldItalic.otf / HIRAV8-W8.TTF / IWAOMINPRO-FATE-BD.TTF / QUADRAAT-BOLD.OTF / SWISS721BT-BOLDROUNDED.TTF

Video
ID                                       : 1
Format                                   : AVC
Format/Info                              : Advanced Video Codec
Format profile                           : High@L3.1
Format settings                          : CABAC / 4 Ref Frames
Format settings, CABAC                   : Yes
Format settings, ReFrames                : 4 frames
Codec ID                                 : V_MPEG4/ISO/AVC
Duration                                 : 24 min 54 s
Bit rate                                 : 1 329 kb/s
Width                                    : 1 280 pixels
Height                                   : 720 pixels
Display aspect ratio                     : 16:9
Frame rate mode                          : Constant
Frame rate                               : 23.976 (24000/1001) FPS
Color space                              : YUV
Chroma subsampling                       : 4:2:0
Bit depth                                : 8 bits
Scan type                                : Progressive
Bits/(Pixel*Frame)                       : 0.060
Stream size                              : 237 MiB (91%)
Writing library                          : x264 core 142
Encoding settings                        : cabac=1 / ref=4 / deblock=1:1:1 / analyse=0x3:0x113 / me=umh / subme=8 / psy=1 / psy_rd=0.40:0.00 / mixed_ref=1 / me_range=16 / chroma_me=1 / trellis=1 / 8x8dct=1 / cqm=0 / deadzone=21,11 / fast_pskip=1 / chroma_qp_offset=-2 / threads=10 / lookahead_threads=1 / sliced_threads=0 / nr=0 / decimate=1 / interlaced=0 / bluray_compat=0 / constrained_intra=0 / bframes=3 / b_pyramid=2 / b_adapt=2 / b_bias=0 / direct=3 / weightb=1 / open_gop=0 / weightp=2 / keyint=96 / keyint_min=48 / scenecut=40 / intra_refresh=0 / rc_lookahead=48 / rc=crf / mbtree=1 / crf=15.0 / qcomp=0.60 / qpmin=0 / qpmax=69 / qpstep=4 / vbv_maxrate=4000 / vbv_bufsize=6000 / crf_max=0.0 / nal_hrd=none / filler=0 / ip_ratio=1.40 / aq=1:0.60
Default                                  : Yes
Forced                                   : No

Audio
ID                                       : 2
Format                                   : AAC LC
Format/Info                              : Advanced Audio Codec Low Complexity
Codec ID                                 : A_AAC-2
Duration                                 : 24 min 54 s
Bit rate                                 : 128 kb/s
Channel(s)                               : 2 channels
Channel layout                           : L R
Sampling rate                            : 44.1 kHz
Frame rate                               : 43.066 FPS (1024 SPF)
Compression mode                         : Lossy
Delay relative to video                  : 6 ms
Stream size                              : 22.8 MiB (9%)
Language                                 : Japanese
Default                                  : Yes
Forced                                   : No

Text
ID                                       : 3
Format                                   : ASS
Codec ID                                 : S_TEXT/ASS
Codec ID/Info                            : Advanced Sub Station Alpha
Duration                                 : 23 min 55 s
Bit rate                                 : 152 b/s
Count of elements                        : 443
Compression mode                         : Lossless
Stream size                              : 26.7 KiB (0%)
Language                                 : English
Default                                  : Yes
Forced                                   : No

Menu
00:00:00.033                             : en:OP
00:01:31.030                             : en:Episode
00:21:55.040                             : en:ED
00:23:25.030                             : en:Preview
00:23:54.920                             : en:Credits

Other Files in this Torrent
[Okay-Subs] Araburu Kisetsu no Otome-domo yo. - 01 [25004D82].mkv
beta
Anime DDL+NZB mirror
Current Time: 23/09/2020 21:37



About/FAQs