File Size323.7 MB (339,373,123 bytes)
DownloadClickNUpload | Jheberg | MultiUp
  • BdUpload
  • DownAce
  • Fichier
  • FileCloud
  • Filerio
  • FilesCdn
  • IndiShare
  • Kbagi
  • Turbobit
  • UpToBox
  • Uppit
| OpenLoad | SolidFiles | ZippyShare
Sendspace: Part1, Part2
HashesCRC32: D6F0CA82, MD5: FC73419077F1C902644EC450DD13D2D5, SHA1: 4DB7C359C20D3E2FDDB0FF38373C57B158B0BB4C, SHA256: 44047A5D352498DF4D649A4A67C47E08DE9035F2EFFD8CE0311D178FD8176650, ED2K: 4F7EEF95D95F0BD55D8323B8AF8A7761
Screenshots
screenshotscreenshotscreenshotscreenshotscreenshot
SubtitlesAll Attachments | eng [ASS]
Additional Info
General
Unique ID                                : 286527139983691992027310002176003186435 (0xD78F1EB0496973330754D7F6AAD09F03)
Complete name                            : [Okay-Subs] Araburu Kisetsu no Otome-domo yo. - 09 [D6F0CA82].mkv
Format                                   : Matroska
Format version                           : Version 4
File size                                : 324 MiB
Duration                                 : 23 min 42 s
Overall bit rate                         : 1 909 kb/s
Encoded date                             : UTC 2019-09-15 19:25:50
Writing application                      : mkvmerge v19.0.0 ('Brave Captain') 64-bit
Writing library                          : libebml v1.3.5 + libmatroska v1.4.8
Attachments                              : ARIAL-BOLDMT-STR.TTF / GandhiSans-Bold.otf / GandhiSans-BoldItalic.otf / HIRAV8-W8.TTF / IWAOMINPRO-FATE-BD.TTF / QUADRAAT-BOLD.OTF / SWISS721BT-BOLDROUNDED.TTF

Video
ID                                       : 1
Format                                   : AVC
Format/Info                              : Advanced Video Codec
Format profile                           : High 10@L5
Format settings                          : CABAC / 16 Ref Frames
Format settings, CABAC                   : Yes
Format settings, ReFrames                : 16 frames
Codec ID                                 : V_MPEG4/ISO/AVC
Duration                                 : 23 min 40 s
Bit rate                                 : 1 676 kb/s
Width                                    : 1 280 pixels
Height                                   : 720 pixels
Display aspect ratio                     : 16:9
Frame rate mode                          : Constant
Frame rate                               : 23.976 (24000/1001) FPS
Color space                              : YUV
Chroma subsampling                       : 4:2:0
Bit depth                                : 10 bits
Scan type                                : Progressive
Bits/(Pixel*Frame)                       : 0.076
Stream size                              : 284 MiB (88%)
Writing library                          : x264 core 152 r2851 ba24899
Encoding settings                        : cabac=1 / ref=16 / deblock=1:0:0 / analyse=0x3:0x133 / me=umh / subme=10 / psy=1 / psy_rd=1.00:0.00 / mixed_ref=1 / me_range=24 / chroma_me=1 / trellis=2 / 8x8dct=1 / cqm=0 / deadzone=21,11 / fast_pskip=1 / chroma_qp_offset=-2 / threads=6 / lookahead_threads=1 / sliced_threads=0 / nr=0 / decimate=1 / interlaced=0 / bluray_compat=0 / constrained_intra=0 / bframes=8 / b_pyramid=2 / b_adapt=2 / b_bias=0 / direct=3 / weightb=1 / open_gop=0 / weightp=2 / keyint=250 / keyint_min=23 / scenecut=40 / intra_refresh=0 / rc_lookahead=60 / rc=crf / mbtree=1 / crf=15.0 / qcomp=0.60 / qpmin=0 / qpmax=81 / qpstep=4 / ip_ratio=1.40 / aq=1:1.00
Default                                  : Yes
Forced                                   : No
Color range                              : Limited
Matrix coefficients                      : BT.709

Audio
ID                                       : 2
Format                                   : E-AC-3
Format/Info                              : Enhanced AC-3
Commercial name                          : Dolby Digital Plus
Codec ID                                 : A_EAC3
Duration                                 : 23 min 41 s
Bit rate mode                            : Constant
Bit rate                                 : 224 kb/s
Channel(s)                               : 2 channels
Channel layout                           : L R
Sampling rate                            : 48.0 kHz
Frame rate                               : 31.250 FPS (1536 SPF)
Compression mode                         : Lossy
Delay relative to video                  : 21 ms
Stream size                              : 38.0 MiB (12%)
Language                                 : Japanese
Service kind                             : Complete Main
Default                                  : Yes
Forced                                   : No

Text
ID                                       : 3
Format                                   : ASS
Codec ID                                 : S_TEXT/ASS
Codec ID/Info                            : Advanced Sub Station Alpha
Duration                                 : 23 min 42 s
Bit rate                                 : 166 b/s
Count of elements                        : 454
Compression mode                         : Lossless
Stream size                              : 28.9 KiB (0%)
Language                                 : English
Default                                  : Yes
Forced                                   : No

Menu
00:00:00.033                             : en:Intro
00:01:53.590                             : en:OP
00:03:23.520                             : en:Episode
00:21:56.580                             : en:ED
00:23:26.570                             : en:Preview

Other Files in this Torrent
[Okay-Subs] Araburu Kisetsu no Otome-domo yo. - 09 [D6F0CA82].mkv
beta
Anime DDL+NZB mirror
Current Time: 18/11/2019 19:39



About/FAQs