File Size736.3 MB (772,113,570 bytes)
DownloadClickNUpload | Jheberg | OpenLoad
MultiUp: Part1
  • BdUpload
  • DownAce
  • Fichier
  • FileCloud
  • Filerio
  • FilesCdn
  • IndiShare
  • Kbagi
  • Turbobit
  • UpToBox
  • Uppit
, Part2
  • BdUpload
  • DownAce
  • Fichier
  • FileCloud
  • Filerio
  • FilesCdn
  • IndiShare
  • Kbagi
  • Turbobit
  • UpToBox
  • Uppit

Sendspace: Part1, Part2, Part3
SolidFiles: Part1, Part2
ZippyShare: Part1, Part2
HashesCRC32: FF8ABCBE, MD5: BF667985557A873B863C2E2356680107, SHA1: E8A9DC2163FFC44753E41A5871A2DFD09C2AE035, SHA256: E8E61CFA4132D1ED65862595F29A3D02AF78E34383CB9FCAE8900F8D41172221, ED2K: 304939C053D45BF1762F2D1B371275CE
Screenshots
screenshotscreenshotscreenshotscreenshotscreenshot
SubtitlesAll Attachments | English (US) / English (US) [eng, ASS], Portuguese (Brazilian) / Português (Brasil) [por, ASS], French / Français (France) [fre, ASS], Spanish (Latin American) / Español [spa, ASS], Spanish / Español (España) [spa, ASS], German / Deutsch [ger, ASS], Russian / Русский [rus, ASS], Italian / Italiano [ita, ASS]
Additional Info
General
Unique ID                                : 50847198427923647297338397652691922750 (0x2640D06FAD473A772D706D2015EB2F3E)
Complete name                            : [ok] Katsute Kami Datta Kemono-tachi e - 09 [Multi-Subs] [720p].mkv
Format                                   : Matroska
Format version                           : Version 4
File size                                : 736 MiB
Duration                                 : 23 min 40 s
Overall bit rate                         : 4 350 kb/s
Movie name                               : [ok] Katsute Kami Datta Kemono-tachi e - 09 [Multi-Subs] [720p]
Encoded date                             : UTC 2019-08-26 15:07:07
Writing application                      : mkvmerge v37.0.0 ('Leave It') 64-bit
Writing library                          : libebml v1.3.9 + libmatroska v1.5.2
Attachments                              : AdobeArabic-Bold.otf / andalemo.ttf / arial.ttf / arialbd.ttf / arialbi.ttf / ariali.ttf / arialuni.ttf / ariblk.ttf / comic.ttf / comicbd.ttf / cour.ttf / courbd.ttf / courbi.ttf / couri.ttf / DejaVuLGCSansMono.ttf / DejaVuLGCSansMono-Bold.ttf / DejaVuLGCSansMono-BoldOblique.ttf / DejaVuLGCSansMono-Oblique.ttf / DejaVuSans.ttf / DejaVuSans-Bold.ttf / DejaVuSans-BoldOblique.ttf / DejaVuSansCondensed.ttf / DejaVuSansCondensed-Bold.ttf / DejaVuSansCondensed-BoldOblique.ttf / DejaVuSansCondensed-Oblique.ttf / DejaVuSans-ExtraLight.ttf / DejaVuSansMono.ttf / DejaVuSansMono-Bold.ttf / DejaVuSansMono-BoldOblique.ttf / DejaVuSansMono-Oblique.ttf / DejaVuSans-Oblique.ttf / georgia.ttf / georgiab.ttf / georgiai.ttf / georgiaz.ttf / impact.ttf / Rubik-Black.ttf / Rubik-BlackItalic.ttf / Rubik-Bold.ttf / Rubik-BoldItalic.ttf / Rubik-Italic.ttf / Rubik-Light.ttf / Rubik-LightItalic.ttf / Rubik-Medium.ttf / Rubik-MediumItalic.ttf / Rubik-Regular.ttf / tahoma.ttf / times.ttf / timesbd.ttf / timesbi.ttf / timesi.ttf / trebuc.ttf / trebucbd.ttf / trebucbi.ttf / trebucit.ttf / verdana.ttf / verdanab.ttf / verdanai.ttf / verdanaz.ttf / webdings.ttf / arial.ttf / trebuc.ttf / times.ttf / arialbd.ttf / arialbi.ttf / georgia.ttf / tahoma.ttf

Video
ID                                       : 1
Format                                   : AVC
Format/Info                              : Advanced Video Codec
Format profile                           : High@L4
Format settings                          : CABAC / 6 Ref Frames
Format settings, CABAC                   : Yes
Format settings, ReFrames                : 6 frames
Format settings, GOP                     : N=1
Codec ID                                 : V_MPEG4/ISO/AVC
Duration                                 : 23 min 39 s
Bit rate                                 : 4 000 kb/s
Width                                    : 1 280 pixels
Height                                   : 720 pixels
Display aspect ratio                     : 16:9
Frame rate mode                          : Constant
Frame rate                               : 23.976 (24000/1001) FPS
Color space                              : YUV
Chroma subsampling                       : 4:2:0
Bit depth                                : 8 bits
Scan type                                : Progressive
Bits/(Pixel*Frame)                       : 0.181
Stream size                              : 676 MiB (92%)
Writing library                          : x264 core 142
Encoding settings                        : cabac=1 / ref=6 / deblock=1:1:1 / analyse=0x3:0x113 / me=umh / subme=8 / psy=1 / psy_rd=0.40:0.00 / mixed_ref=1 / me_range=16 / chroma_me=1 / trellis=1 / 8x8dct=1 / cqm=0 / deadzone=21,11 / fast_pskip=1 / chroma_qp_offset=-2 / threads=10 / lookahead_threads=1 / sliced_threads=0 / nr=0 / decimate=1 / interlaced=0 / bluray_compat=0 / constrained_intra=0 / bframes=0 / weightp=2 / keyint=96 / keyint_min=48 / scenecut=40 / intra_refresh=0 / rc_lookahead=48 / rc=2pass / mbtree=1 / bitrate=4000 / ratetol=1.0 / qcomp=0.60 / qpmin=0 / qpmax=69 / qpstep=4 / cplxblur=20.0 / qblur=0.5 / vbv_maxrate=6000 / vbv_bufsize=9000 / nal_hrd=none / filler=0 / ip_ratio=1.40 / aq=1:0.60
Language                                 : Japanese
Default                                  : Yes
Forced                                   : No

Audio
ID                                       : 2
Format                                   : AAC LC
Format/Info                              : Advanced Audio Codec Low Complexity
Codec ID                                 : A_AAC-2
Duration                                 : 23 min 40 s
Bit rate                                 : 128 kb/s
Channel(s)                               : 2 channels
Channel layout                           : L R
Sampling rate                            : 44.1 kHz
Frame rate                               : 43.066 FPS (1024 SPF)
Compression mode                         : Lossy
Stream size                              : 21.7 MiB (3%)
Language                                 : Japanese
Default                                  : Yes
Forced                                   : No

Text #1
ID                                       : 3
Format                                   : ASS
Codec ID                                 : S_TEXT/ASS
Codec ID/Info                            : Advanced Sub Station Alpha
Duration                                 : 22 min 9 s
Bit rate                                 : 120 b/s
Count of elements                        : 207
Compression mode                         : Lossless
Stream size                              : 19.6 KiB (0%)
Title                                    : English (US) / English (US)
Language                                 : English
Default                                  : Yes
Forced                                   : No

Text #2
ID                                       : 4
Format                                   : ASS
Codec ID                                 : S_TEXT/ASS
Codec ID/Info                            : Advanced Sub Station Alpha
Duration                                 : 22 min 9 s
Bit rate                                 : 83 b/s
Count of elements                        : 202
Compression mode                         : Lossless
Stream size                              : 13.6 KiB (0%)
Title                                    : Portuguese (Brazilian) / Português (Brasil)
Language                                 : Portuguese
Default                                  : No
Forced                                   : No

Text #3
ID                                       : 5
Format                                   : ASS
Codec ID                                 : S_TEXT/ASS
Codec ID/Info                            : Advanced Sub Station Alpha
Duration                                 : 22 min 9 s
Bit rate                                 : 92 b/s
Count of elements                        : 210
Compression mode                         : Lossless
Stream size                              : 15.0 KiB (0%)
Title                                    : French / Français (France)
Language                                 : French
Default                                  : No
Forced                                   : No

Text #4
ID                                       : 6
Format                                   : ASS
Codec ID                                 : S_TEXT/ASS
Codec ID/Info                            : Advanced Sub Station Alpha
Duration                                 : 22 min 9 s
Bit rate                                 : 74 b/s
Count of elements                        : 199
Compression mode                         : Lossless
Stream size                              : 12.2 KiB (0%)
Title                                    : Spanish (Latin American) / Español
Language                                 : Spanish
Default                                  : No
Forced                                   : No

Text #5
ID                                       : 7
Format                                   : ASS
Codec ID                                 : S_TEXT/ASS
Codec ID/Info                            : Advanced Sub Station Alpha
Duration                                 : 22 min 9 s
Bit rate                                 : 75 b/s
Count of elements                        : 199
Compression mode                         : Lossless
Stream size                              : 12.2 KiB (0%)
Title                                    : Spanish / Español (España)
Language                                 : Spanish
Default                                  : No
Forced                                   : No

Text #6
ID                                       : 8
Format                                   : ASS
Codec ID                                 : S_TEXT/ASS
Codec ID/Info                            : Advanced Sub Station Alpha
Duration                                 : 22 min 9 s
Bit rate                                 : 94 b/s
Count of elements                        : 208
Compression mode                         : Lossless
Stream size                              : 15.4 KiB (0%)
Title                                    : German / Deutsch
Language                                 : German
Default                                  : No
Forced                                   : No

Text #7
ID                                       : 9
Format                                   : ASS
Codec ID                                 : S_TEXT/ASS
Codec ID/Info                            : Advanced Sub Station Alpha
Duration                                 : 23 min 32 s
Bit rate                                 : 121 b/s
Count of elements                        : 243
Compression mode                         : Lossless
Stream size                              : 21.0 KiB (0%)
Title                                    : Russian / Русский
Language                                 : Russian
Default                                  : No
Forced                                   : No

Text #8
ID                                       : 10
Format                                   : ASS
Codec ID                                 : S_TEXT/ASS
Codec ID/Info                            : Advanced Sub Station Alpha
Duration                                 : 22 min 9 s
Bit rate                                 : 92 b/s
Count of elements                        : 252
Compression mode                         : Lossless
Stream size                              : 15.0 KiB (0%)
Title                                    : Italian / Italiano
Language                                 : Italian
Default                                  : No
Forced                                   : No
beta
Anime DDL+NZB mirror
Current Time: 06/12/2019 18:33



About/FAQs