【OFFICIAL ENG SUB】 斗罗大陆 Soul Land - Episode 037 [1080p][Fixed]/【斗罗大陆 Soul Land】 EP037 史莱克唐三1v6压制全场.mkv


File Size408.9 MB (428,780,198 bytes)
DownloadAnonFiles | ClickNUpload | DropAPK | Free | MultiUp
  • BdUpload
  • DownAce
  • Fichier
  • FileCloud
  • Filerio
  • FilesCdn
  • IndiShare
  • Kbagi
  • Turbobit
  • UpToBox
  • Uppit
| ZippyShare
Sendspace: Part1, Part2
HashesCRC32: 81BE36DA, MD5: 93944BE033115279A03EE900CCEF94BC, SHA1: 16FD8322155F091E72CEBF4933CB0D9F87585455, SHA256: FAB5CB2D70AE6496957B6387049A2418619EE886D6670D294C4B60D26554B7DA, ED2K: AD7B02E4846ED5569A5E1EC17A11B943
Screenshots
screenshotscreenshotscreenshotscreenshotscreenshot
SubtitlesAll Attachments | und [ASS]
Additional Info
General
Unique ID                                : 110241229268346411982149611749379326526 (0x52EFB03E9CE58C48FBBF71AC2672C23E)
Complete name                            : 【斗罗大陆 Soul Land】 EP037 史莱克唐三1v6压制全场.mkv
Format                                   : Matroska
Format version                           : Version 4
File size                                : 409 MiB
Duration                                 : 21 min 32 s
Overall bit rate                         : 2 653 kb/s
Encoded date                             : UTC 2020-09-25 01:06:12
Writing application                      : mkvmerge v50.0.0 ('Awakenings') 64-bit
Writing library                          : libebml v1.4.0 + libmatroska v1.6.2 / Lavf58.20.100

Video
ID                                       : 1
Format                                   : VP9
Codec ID                                 : V_VP9
Duration                                 : 21 min 32 s
Bit rate                                 : 2 523 kb/s
Width                                    : 1 920 pixels
Height                                   : 1 080 pixels
Display aspect ratio                     : 16:9
Frame rate mode                          : Constant
Frame rate                               : 30.000 FPS
Color space                              : YUV
Bits/(Pixel*Frame)                       : 0.041
Stream size                              : 389 MiB (95%)
Default                                  : Yes
Forced                                   : No
Color range                              : Limited
Color primaries                          : BT.709
Transfer characteristics                 : BT.709
Matrix coefficients                      : BT.709

Audio
ID                                       : 2
Format                                   : AAC LC
Format/Info                              : Advanced Audio Codec Low Complexity
Codec ID                                 : A_AAC-2
Duration                                 : 21 min 32 s
Bit rate                                 : 128 kb/s
Channel(s)                               : 2 channels
Channel layout                           : L R
Sampling rate                            : 44.1 kHz
Frame rate                               : 43.066 FPS (1024 SPF)
Compression mode                         : Lossy
Stream size                              : 19.7 MiB (5%)
Default                                  : Yes
Forced                                   : No

Text
ID                                       : 3
Format                                   : ASS
Codec ID                                 : S_TEXT/ASS
Codec ID/Info                            : Advanced Sub Station Alpha
Duration                                 : 20 min 36 s
Bit rate                                 : 79 b/s
Count of elements                        : 214
Compression mode                         : Lossless
Stream size                              : 11.9 KiB (0%)
Default                                  : Yes
Forced                                   : No
beta
Anime DDL+NZB mirror
Current Time: 16/04/2021 17:45



About/FAQs