File Size1.106 GB (1,187,740,661 bytes)
DownloadClickNUpload
DownloadGG: Part1, Part2
KrakenFiles: Part1, Part2
MultiUp: Part1
  • BdUpload
  • DownAce
  • Fichier
  • FileCloud
  • Filerio
  • FilesCdn
  • IndiShare
  • Kbagi
  • Turbobit
  • UpToBox
  • Uppit
, Part2
  • BdUpload
  • DownAce
  • Fichier
  • FileCloud
  • Filerio
  • FilesCdn
  • IndiShare
  • Kbagi
  • Turbobit
  • UpToBox
  • Uppit
, Part3
  • BdUpload
  • DownAce
  • Fichier
  • FileCloud
  • Filerio
  • FilesCdn
  • IndiShare
  • Kbagi
  • Turbobit
  • UpToBox
  • Uppit

ZippyShare: Part1, Part2, Part3
HashesCRC32: BB5C22B2, MD5: 2E8FA0C823C0B5A022DAC750C435A5C1, SHA1: F6B441CC3EED1E35323FEAA8D009AB3B214E556C, SHA256: D53ECA48579DFBED53C643898F17B9F4063AD21BFF0AB621F66DAE3B98662C8A, ED2K: A54519F9B694895D7E2B3113C0B06955
Screenshots
screenshotscreenshotscreenshotscreenshotscreenshot
SubtitlesAll Attachments | English Dialogue [eng, ASS]
Additional Info
General
Unique ID                                : 133315569952127365471256377394092519271 (0x644BA5131470B97BED99C030F16F2F67)
Complete name                            : [The-Nut] Jujutsu Kaisen 0 [1080p 10bit AV1].mkv
Format                                   : Matroska
Format version                           : Version 4
File size                                : 1.11 GiB
Duration                                 : 1 h 44 min
Overall bit rate                         : 1 509 kb/s
Encoded date                             : UTC 2022-09-21 23:37:38
Writing application                      : mkvmerge v70.0.0 ('Caught A Lite Sneeze') 64-bit
Writing library                          : libebml v1.4.2 + libmatroska v1.6.3 / Lavf59.27.100

Video
ID                                       : 1
Format                                   : AV1
Format/Info                              : AOMedia Video 1
Format profile                           : Main
Codec ID                                 : V_AV1
Duration                                 : 1 h 44 min
Bit rate                                 : 1 382 kb/s
Width                                    : 1 920 pixels
Height                                   : 800 pixels
Display aspect ratio                     : 2.40:1
Frame rate mode                          : Constant
Frame rate                               : 23.976 (24000/1001) FPS
Color space                              : YUV
Chroma subsampling                       : 4:2:0
Bit depth                                : 10 bits
Bits/(Pixel*Frame)                       : 0.038
Stream size                              : 1.01 GiB (92%)
Default                                  : Yes
Forced                                   : No
Color range                              : Limited

Audio
ID                                       : 2
Format                                   : Opus
Codec ID                                 : A_OPUS
Duration                                 : 1 h 44 min
Bit rate                                 : 125 kb/s
Channel(s)                               : 2 channels
Channel layout                           : L R
Sampling rate                            : 48.0 kHz
Frame rate                               : 50.000 FPS (960 SPF)
Bit depth                                : 32 bits
Compression mode                         : Lossy
Stream size                              : 93.6 MiB (8%)
Language                                 : Japanese
Default                                  : Yes
Forced                                   : No

Text
ID                                       : 3
Format                                   : ASS
Codec ID                                 : S_TEXT/ASS
Codec ID/Info                            : Advanced Sub Station Alpha
Duration                                 : 1 h 44 min
Bit rate                                 : 102 b/s
Count of elements                        : 1443
Compression mode                         : Lossless
Stream size                              : 78.4 KiB (0%)
Title                                    : English Dialogue
Language                                 : English
Default                                  : Yes
Forced                                   : Yes

Menu
00:00:00.007                             : 00:00:00.007
00:00:27.034                             : 00:00:27.034
00:06:25.767                             : 00:06:25.767
00:26:05.612                             : 00:26:05.612
00:46:32.546                             : 00:46:32.546
01:06:21.567                             : 01:06:21.567
01:35:46.080                             : 01:35:46.080
01:43:35.549                             : 01:43:35.549
beta
Anime DDL+NZB mirror
Current Time: 18/05/2024 19:04



About/FAQs

Discord