File Size501.5 MB (525,872,409 bytes)
DownloadClickNUpload | DropAPK | Free
MultiUp: Part1
  • BdUpload
  • DownAce
  • Fichier
  • FileCloud
  • Filerio
  • FilesCdn
  • IndiShare
  • Kbagi
  • Turbobit
  • UpToBox
  • Uppit
, Part2
  • BdUpload
  • DownAce
  • Fichier
  • FileCloud
  • Filerio
  • FilesCdn
  • IndiShare
  • Kbagi
  • Turbobit
  • UpToBox
  • Uppit

SolidFiles: Part1, Part2
ZippyShare: Part1, Part2
HashesCRC32: 891466F4, MD5: 0C209074E05ABA58F8F460B514C45F0C, SHA1: AC44D41B7ED742C364B2F3033164F66729C46124, SHA256: 91EC19AA220E2C1D28003E2907FD27639BA910D42147B43D979084F5280D4AD7, ED2K: 85E9D040C43735588167A63293232D06
Screenshots
screenshotscreenshotscreenshotscreenshotscreenshot
SubtitlesAll Attachments | NS [eng, ASS]
Additional Info
General
Unique ID                                : 188910369405915028423020886714566863874 (0x8E1ED0503E338830030DCA7CDD046C02)
Complete name                            : [NS] Nanatsu No Taizai -  Fundo No Shinpan - 13 - (1080p 10bit) [891466F4].mkv
Format                                   : Matroska
Format version                           : Version 4
File size                                : 502 MiB
Duration                                 : 24 min 12 s
Overall bit rate                         : 2 897 kb/s
Encoded date                             : UTC 2021-04-14 10:35:26
Writing application                      : mkvmerge v52.0.0 ('Secret For The Mad') 64-bit
Writing library                          : libebml v1.4.1 + libmatroska v1.6.2
Attachments                              : 12_Avenir_95_Black_09173.ttf / Avenir_LT_95_Black_Oblique.ttf

Video
ID                                       : 1
Format                                   : AVC
Format/Info                              : Advanced Video Codec
Format profile                           : High 10@L5.1
Format settings                          : CABAC / 16 Ref Frames
Format settings, CABAC                   : Yes
Format settings, ReFrames                : 16 frames
Codec ID                                 : V_MPEG4/ISO/AVC
Duration                                 : 24 min 11 s
Bit rate                                 : 2 578 kb/s
Width                                    : 1 920 pixels
Height                                   : 1 080 pixels
Display aspect ratio                     : 16:9
Frame rate mode                          : Constant
Frame rate                               : 23.976 (24000/1001) FPS
Color space                              : YUV
Chroma subsampling                       : 4:2:0
Bit depth                                : 10 bits
Scan type                                : Progressive
Bits/(Pixel*Frame)                       : 0.052
Stream size                              : 446 MiB (89%)
Writing library                          : x264 core 159 r2991 1771b55
Encoding settings                        : cabac=1 / ref=16 / deblock=1:0:0 / analyse=0x3:0x133 / me=umh / subme=10 / psy=1 / psy_rd=0.75:0.00 / mixed_ref=1 / me_range=24 / chroma_me=1 / trellis=2 / 8x8dct=1 / cqm=0 / deadzone=21,11 / fast_pskip=0 / chroma_qp_offset=-2 / threads=34 / lookahead_threads=8 / sliced_threads=0 / nr=0 / decimate=0 / interlaced=0 / bluray_compat=0 / constrained_intra=0 / bframes=16 / b_pyramid=2 / b_adapt=2 / b_bias=0 / direct=3 / weightb=1 / open_gop=0 / weightp=2 / keyint=250 / keyint_min=23 / scenecut=40 / intra_refresh=0 / rc_lookahead=250 / rc=crf / mbtree=1 / crf=17.0 / qcomp=0.72 / qpmin=0 / qpmax=81 / qpstep=4 / ip_ratio=1.40 / aq=3:0.85
Language                                 : Japanese
Default                                  : Yes
Forced                                   : No

Audio
ID                                       : 2
Format                                   : AAC LC
Format/Info                              : Advanced Audio Codec Low Complexity
Codec ID                                 : A_AAC-2
Duration                                 : 24 min 12 s
Bit rate                                 : 311 kb/s
Channel(s)                               : 2 channels
Channel layout                           : L R
Sampling rate                            : 48.0 kHz
Frame rate                               : 46.875 FPS (1024 SPF)
Compression mode                         : Lossy
Stream size                              : 53.9 MiB (11%)
Title                                    : Stereo
Language                                 : Japanese
Default                                  : Yes
Forced                                   : No

Text
ID                                       : 3
Format                                   : ASS
Codec ID                                 : S_TEXT/ASS
Codec ID/Info                            : Advanced Sub Station Alpha
Duration                                 : 24 min 7 s
Bit rate                                 : 3 800 b/s
Count of elements                        : 4184
Compression mode                         : Lossless
Stream size                              : 672 KiB (0%)
Title                                    : NS
Language                                 : English
Default                                  : Yes
Forced                                   : No

Menu
00:00:00.000                             : ja:Prologue
00:02:27.022                             : ja:Opening Theme
00:03:57.028                             : :Part A
00:12:46.057                             : ja:Part B
00:21:07.016                             : ja:Ending Theme
00:23:41.003                             : ja:Preview
beta
Anime DDL+NZB mirror
Current Time: 16/06/2021 21:21



About/FAQs