File Size1.052 GB (1,129,249,565 bytes)
DownloadClickNUpload
DownloadGG: Part1, Part2
MultiUp: Part1
  • BdUpload
  • DownAce
  • Fichier
  • FileCloud
  • Filerio
  • FilesCdn
  • IndiShare
  • Kbagi
  • Turbobit
  • UpToBox
  • Uppit
, Part2
  • BdUpload
  • DownAce
  • Fichier
  • FileCloud
  • Filerio
  • FilesCdn
  • IndiShare
  • Kbagi
  • Turbobit
  • UpToBox
  • Uppit
, Part3
  • BdUpload
  • DownAce
  • Fichier
  • FileCloud
  • Filerio
  • FilesCdn
  • IndiShare
  • Kbagi
  • Turbobit
  • UpToBox
  • Uppit

ZippyShare: Part1, Part2, Part3
HashesCRC32: 32231DBE, MD5: CED45F43DCCE47CE26C9B3DEA680A525, SHA1: 200CFED9F6000B67F8A82B1D0180BA05E48077A1, SHA256: D69288C4862613EC3569869A57957E464AC152CF4D598B99DCF0D8BDAC46B454, ED2K: D7DF3D212A1492C69199ED5C621A2EBD
Screenshots
screenshotscreenshotscreenshotscreenshotscreenshot
SubtitlesAll Attachments | Full Subtitles [NotODD] [eng, ASS], Signs/Songs [eng, ASS]
Additional Info
General
Unique ID                                : 218904908608131478610187753668725794324 (0xA4AF8D45CA7ABCBE4C8F108D77B56614)
Complete name                            : [NotODD] Shinigami Bocchan to Kuro Maid - 07v2 (WEB 1080p x264 AAC) [32231DBE].mkv
Format                                   : Matroska
Format version                           : Version 4
File size                                : 1.05 GiB
Duration                                 : 23 min 39 s
Overall bit rate                         : 6 363 kb/s
Movie name                               : [NotODD] Shinigami Bocchan to Kuro Maid - 07 (WEB 1080p x264 AAC)
Encoded date                             : UTC 2022-02-23 10:46:12
Writing application                      : mkvmerge v64.0.0 ('Willows') 64-bit
Writing library                          : libebml v1.4.2 + libmatroska v1.6.4
Attachments                              : AlegreyaSans-Light.ttf / AlegreyaSans-Medium.ttf / AnnieUseYourTelescope-Regular.ttf / Cabin-Regular.ttf / HIRA Heavy.ttf / PTSANSTIGHT-BOLD.TTF / PTSANSTIGHT-BOLDITALIC.TTF

Video
ID                                       : 1
Format                                   : AVC
Format/Info                              : Advanced Video Codec
Format profile                           : High@L4
Format settings                          : CABAC / 3 Ref Frames
Format settings, CABAC                   : Yes
Format settings, Reference frames        : 3 frames
Codec ID                                 : V_MPEG4/ISO/AVC
Duration                                 : 23 min 39 s
Bit rate                                 : 5 839 kb/s
Width                                    : 1 920 pixels
Height                                   : 1 080 pixels
Display aspect ratio                     : 16:9
Frame rate mode                          : Constant
Frame rate                               : 23.976 (24000/1001) FPS
Color space                              : YUV
Chroma subsampling                       : 4:2:0
Bit depth                                : 8 bits
Scan type                                : Progressive
Bits/(Pixel*Frame)                       : 0.117
Stream size                              : 988 MiB (92%)
Title                                    : [SubsPlease] 1080p WEB
Language                                 : Japanese
Default                                  : Yes
Forced                                   : No
Color range                              : Limited
Matrix coefficients                      : BT.709

Audio #1
ID                                       : 2
Format                                   : AAC LC
Format/Info                              : Advanced Audio Codec Low Complexity
Codec ID                                 : A_AAC-2
Duration                                 : 23 min 39 s
Bit rate                                 : 256 kb/s
Channel(s)                               : 2 channels
Channel layout                           : L R
Sampling rate                            : 48.0 kHz
Frame rate                               : 46.875 FPS (1024 SPF)
Compression mode                         : Lossy
Delay relative to video                  : 19 ms
Stream size                              : 43.3 MiB (4%)
Title                                    : Japanese 2.0 AAC
Language                                 : Japanese
Default                                  : Yes
Forced                                   : No

Audio #2
ID                                       : 3
Format                                   : AAC LC
Format/Info                              : Advanced Audio Codec Low Complexity
Codec ID                                 : A_AAC-2
Duration                                 : 23 min 39 s
Bit rate                                 : 256 kb/s
Channel(s)                               : 2 channels
Channel layout                           : L R
Sampling rate                            : 48.0 kHz
Frame rate                               : 46.875 FPS (1024 SPF)
Compression mode                         : Lossy
Stream size                              : 43.3 MiB (4%)
Title                                    : English 2.0 AAC
Language                                 : English
Default                                  : No
Forced                                   : No

Text #1
ID                                       : 4
Format                                   : ASS
Codec ID                                 : S_TEXT/ASS
Codec ID/Info                            : Advanced Sub Station Alpha
Duration                                 : 23 min 37 s
Bit rate                                 : 875 b/s
Count of elements                        : 1179
Compression mode                         : Lossless
Stream size                              : 152 KiB (0%)
Title                                    : Full Subtitles [NotODD]
Language                                 : English
Default                                  : Yes
Forced                                   : No

Text #2
ID                                       : 5
Format                                   : ASS
Codec ID                                 : S_TEXT/ASS
Codec ID/Info                            : Advanced Sub Station Alpha
Duration                                 : 22 min 31 s
Bit rate                                 : 769 b/s
Count of elements                        : 754
Compression mode                         : Lossless
Stream size                              : 127 KiB (0%)
Title                                    : Signs/Songs
Language                                 : English
Default                                  : No
Forced                                   : Yes

Menu
00:00:00.000                             : en:Intro
00:00:29.590                             : en:Part A
00:01:04.540                             : en:OP
00:02:34.590                             : en:Part B
00:12:07.580                             : en:Eye catch
00:12:12.590                             : en:Part C
00:19:20.640                             : en:ED
00:20:50.560                             : en:Part D
00:23:34.600                             : en:Preview
beta
Anime DDL+NZB mirror
Current Time: 28/05/2024 08:02



About/FAQs

Discord