[NoobSubs] Redline (720p Blu-ray 8bit AAC).mp4


File Size2.491 GB (2,675,128,435 bytes)
DownloadAnonFiles: Part1, Part2, Part3, Part4, Part5, Part6
DevHost: Part1, Part2, Part3, Part4, Part5
EmbedUpload: Part1, Part2, Part3, Part4
Jheberg: Part1, Part2, Part3
MultiUpload: Part1, Part2, Part3, Part4
Sendspace: Part1, Part2, Part3, Part4, Part5, Part6, Part7, Part8, Part9
ShareBeast: Part1, Part2, Part3, Part4, Part5, Part6, Part7, Part8, Part9, Part10, Part11, Part12, Part13
HashesCRC32: 799B6400, MD5: 36DC03C27871D1518B1BBAEEE8DD6C9C, SHA1: 1FD64C4219F859D2A8C427389F1559AEE6885E5B, ED2K: CCD5D62F0D7AF8E7F58AE85431A8A014
Screenshots
screenshotscreenshotscreenshotscreenshotscreenshot
Additional Info
General
Complete name                            : [NoobSubs] Redline (720p Blu-ray 8bit AAC).mp4
Format                                   : MPEG-4
Format profile                           : Base Media
Codec ID                                 : isom
File size                                : 2.49 GiB
Duration                                 : 1h 42mn
Overall bit rate mode                    : Variable
Overall bit rate                         : 3 492 Kbps
Movie name                               : [NoobSubs] Redline (720p Blu-ray 8bit AAC)
Album                                    : REDLINE
Track name/Position                      : 1
Track name/Total                         : 1
Performer                                : Subs: Official (Restyled)
Encoded date                             : UTC 2014-02-03 03:44:27
Tagged date                              : UTC 2014-02-03 09:31:01
replaygain_track_gain                    : -0.88 dB
replaygain_track_minmax                  : 97,188
replaygain_track_peak                    : 1.380000
replaygain_undo                          : -5,-5

Video
ID                                       : 1
Format                                   : AVC
Format/Info                              : Advanced Video Codec
Format profile                           : High@L4.0
Format settings, CABAC                   : Yes
Format settings, ReFrames                : 6 frames
Codec ID                                 : avc1
Codec ID/Info                            : Advanced Video Coding
Duration                                 : 1h 42mn
Bit rate                                 : 3 248 Kbps
Maximum bit rate                         : 44.2 Mbps
Width                                    : 1 272 pixels
Height                                   : 714 pixels
Display aspect ratio                     : 16:9
Frame rate mode                          : Constant
Frame rate                               : 23.976 fps
Color space                              : YUV
Chroma subsampling                       : 4:2:0
Bit depth                                : 8 bits
Scan type                                : Progressive
Bits/(Pixel*Frame)                       : 0.149
Stream size                              : 2.32 GiB (93%)
Writing library                          : x264 core 130 r2273 b3065e6
Encoding settings                        : cabac=1 / ref=6 / deblock=1:1:1 / analyse=0x3:0x133 / me=umh / subme=10 / psy=1 / psy_rd=0.40:0.00 / mixed_ref=1 / me_range=24 / chroma_me=1 / trellis=2 / 8x8dct=1 / cqm=0 / deadzone=21,11 / fast_pskip=1 / chroma_qp_offset=-2 / threads=12 / lookahead_threads=2 / sliced_threads=0 / nr=0 / decimate=1 / interlaced=0 / bluray_compat=0 / constrained_intra=0 / bframes=8 / b_pyramid=2 / b_adapt=2 / b_bias=0 / direct=3 / weightb=1 / open_gop=0 / weightp=2 / keyint=250 / keyint_min=23 / scenecut=40 / intra_refresh=0 / rc_lookahead=60 / rc=crf / mbtree=1 / crf=17.3 / qcomp=0.60 / qpmin=0 / qpmax=69 / qpstep=4 / ip_ratio=1.40 / aq=1:1.00
Encoded date                             : UTC 2014-02-03 03:44:27
Tagged date                              : UTC 2014-02-03 03:47:43

Audio
ID                                       : 2
Format                                   : AAC
Format/Info                              : Advanced Audio Codec
Format profile                           : LC
Codec ID                                 : 40
Duration                                 : 1h 42mn
Bit rate mode                            : Variable
Bit rate                                 : 241 Kbps
Maximum bit rate                         : 300 Kbps
Channel(s)                               : 2 channels
Channel positions                        : Front: L R
Sampling rate                            : 48.0 KHz
Compression mode                         : Lossy
Stream size                              : 176 MiB (7%)
Encoded date                             : UTC 2014-02-03 03:47:35
Tagged date                              : UTC 2014-02-03 03:47:43
beta
Anime DDL+NZB mirror
Current Time: 27/10/2021 04:41



About/FAQs

Discord