File Size256.2 MB (268,607,226 bytes)
DownloadClickNUpload | Jheberg | MultiUp
  • BdUpload
  • DownAce
  • Fichier
  • FileCloud
  • Filerio
  • FilesCdn
  • IndiShare
  • Kbagi
  • Solidfiles
  • Turbobit
  • UpToBox
  • Uppit
| OpenLoad | Sendspace | ZippyShare
HashesCRC32: 2D23541C, MD5: D4D1B1F013A0990BA4F9DB4D3030438E, SHA1: F09BA017178D7D5473C3176BC267815E6AE7F62F, SHA256: 03262EA4832FC8E9AC2ED7DAD6D47A2E4A15D405EDE903D071E639792C81E5F4, ED2K: 4D617C2DE82EA2546994043D1680D4E2
Screenshots
screenshotscreenshotscreenshotscreenshotscreenshot
SubtitlesAll Attachments | Nii-sama [eng, ASS]
Additional Info
General
Unique ID                                : 74215353897167855234422063895779897375 (0x37D55B741B1B09421CCA5D673D42701F)
Complete name                            : [Nii-sama] Midara na Ao-chan wa Benkyou ga Dekinai - 09 [1080p][HEVC][10bit][2D23541C].mkv
Format                                   : Matroska
Format version                           : Version 4
File size                                : 256 MiB
Duration                                 : 12 min 7 s
Overall bit rate                         : 2 955 kb/s
Movie name                               : [Nii-sama] Midara na Ao-chan wa Benkyou ga Dekinai - 09 [1080p]
Encoded date                             : UTC 2019-05-31 19:32:55
Writing application                      : mkvmerge v30.1.0 ('Forever And More') 64-bit
Writing library                          : libebml v1.3.6 + libmatroska v1.4.9
Attachments                              : CaveatBrush-Regular.ttf / CM Big Fat Paintbrush_0.ttf / corbelb_0.ttf / DREAMOFM_0.TTF / EraserRegular_0.ttf / GillSansCondBoNova.ttf / Impress_0.ttf / lazy_dog_0.ttf / Love Story Rough_0.ttf / loveness_0.ttf / NymphsHandwritingNEW_0.ttf / PENCIL SHARP.ttf / POLO_0.TTF / simkai.ttf / Stoobs_0.ttf / tt0586m_0.ttf / tt1107m_0.ttf / cordia.ttc / UDDigiKyokashoN-B_0.ttc / 0LemonMilkbold.otf

Video
ID                                       : 1
Format                                   : HEVC
Format/Info                              : High Efficiency Video Coding
Format profile                           : Main 10@L4@Main
Codec ID                                 : V_MPEGH/ISO/HEVC
Duration                                 : 12 min 7 s
Bit rate                                 : 2 576 kb/s
Width                                    : 1 920 pixels
Height                                   : 1 080 pixels
Display aspect ratio                     : 16:9
Frame rate mode                          : Constant
Frame rate                               : 23.976 (23976/1000) FPS
Original frame rate                      : 23.976 (24000/1001) FPS
Color space                              : YUV
Chroma subsampling                       : 4:2:0
Bit depth                                : 10 bits
Bits/(Pixel*Frame)                       : 0.052
Stream size                              : 223 MiB (87%)
Writing library                          : x265 2.9+9-f74003e88622:[Windows][GCC 8.2.0][64 bit] 10bit
Encoding settings                        : cpuid=1111039 / frame-threads=16 / numa-pools=16 / wpp / no-pmode / no-pme / no-psnr / no-ssim / log-level=3 / input-csp=1 / input-res=1920x1080 / interlace=0 / total-frames=0 / level-idc=0 / high-tier=1 / uhd-bd=0 / ref=5 / allow-non-conformance / no-repeat-headers / annexb / no-aud / no-hrd / info / hash=0 / no-temporal-layers / open-gop / min-keyint=24 / keyint=240 / gop-lookahead=0 / bframes=8 / b-adapt=2 / b-pyramid / bframe-bias=0 / rc-lookahead=60 / lookahead-slices=6 / scenecut=40 / radl=0 / no-intra-refresh / ctu=64 / min-cu-size=8 / no-rect / no-amp / max-tu-size=32 / tu-inter-depth=1 / tu-intra-depth=1 / limit-tu=0 / rdoq-level=0 / dynamic-rd=0.00 / no-ssim-rd / signhide / no-tskip / nr-intra=0 / nr-inter=0 / no-constrained-intra / strong-intra-smoothing / max-merge=2 / limit-refs=3 / no-limit-modes / me=3 / subme=5 / merange=92 / temporal-mvp / weightp / weightb / no-analyze-src-pics / deblock=-4:-4 / sao / no-sao-non-deblock / rd=3 / no-early-skip / rskip / no-fast-intra / no-tskip-fast / no-cu-lossless / no-b-intra / no-splitrd-skip / rdpenalty=0 / psy-rd=2.00 / psy-rdoq=0.00 / no-rd-refine / no-lossless / cbqpoffs=0 / crqpoffs=0 / rc=cqp / qp=18 / ipratio=1.40 / pbratio=1.30 / aq-mode=0 / aq-strength=0.00 / no-cutree / zone-count=0 / no-strict-cbr / qg-size=64 / no-rc-grain / qpmax=69 / qpmin=0 / no-const-vbv / sar=1 / overscan=0 / videoformat=5 / range=0 / colorprim=1 / transfer=1 / colormatrix=1 / chromaloc=0 / display-window=0 / max-cll=0,0 / min-luma=0 / max-luma=1023 / log2-max-poc-lsb=8 / vui-timing-info / vui-hrd-info / slices=1 / no-opt-qp-pps / no-opt-ref-list-length-pps / no-multi-pass-opt-rps / scenecut-bias=0.05 / no-opt-cu-delta-qp / no-aq-motion / no-hdr / no-hdr-opt / no-dhdr10-opt / no-idr-recovery-sei / analysis-reuse-level=5 / scale-factor=0 / refine-intra=0 / refine-inter=0 / refine-mv=0 / no-limit-sao / ctu-info=0 / no-lowpass-dct / refine-mv-type=0 / copy-pic=1 / max-ausize-factor=1.0 / no-dynamic-refine / no-single-sei
Language                                 : Japanese
Default                                  : Yes
Forced                                   : No
Color range                              : Limited
Color primaries                          : BT.709
Transfer characteristics                 : BT.709
Matrix coefficients                      : BT.709

Audio
ID                                       : 2
Format                                   : AAC LC
Format/Info                              : Advanced Audio Codec Low Complexity
Codec ID                                 : A_AAC-2
Duration                                 : 12 min 7 s
Bit rate                                 : 159 kb/s
Channel(s)                               : 2 channels
Channel layout                           : L R
Sampling rate                            : 48.0 kHz
Frame rate                               : 46.875 FPS (1024 SPF)
Compression mode                         : Lossy
Stream size                              : 13.8 MiB (5%)
Title                                    : Japanese
Language                                 : Japanese
Default                                  : Yes
Forced                                   : No

Text
ID                                       : 3
Format                                   : ASS
Codec ID                                 : S_TEXT/ASS
Codec ID/Info                            : Advanced Sub Station Alpha
Duration                                 : 12 min 6 s
Bit rate                                 : 207 b/s
Count of elements                        : 272
Compression mode                         : Lossless
Stream size                              : 18.4 KiB (0%)
Title                                    : Nii-sama
Language                                 : English
Default                                  : Yes
Forced                                   : No

Menu
00:00:00.000                             : en: - Start / en:INDEX 01
00:01:00.000                             : en: - OP / en:INDEX 01
00:02:00.000                             : en: - Part 1 / en:INDEX 01
00:05:26.813                             : en: - Part 2 / en:INDEX 01
00:10:57.000                             : en: - ED / en:INDEX 01
00:11:57.000                             : en: - Preview / en:INDEX 01
beta
Anime DDL+NZB mirror
Current Time: 15/12/2019 18:21



About/FAQs