[Nii-sama] Manaria Friends - 06 [720p][HEVC][10bit][6BD25AF7].mkv


File Size234.3 MB (245,717,190 bytes)
DownloadClickNUpload | Go4Up | Jheberg | MultiUp | OpenLoad | Sendspace | ZippyShare
HashesCRC32: 6BD25AF7, MD5: DDDECE2902AE05436FCF164C36AE1F11, SHA1: B652428167C2090DFCDE309CFAAFD36E5CDF021D, SHA256: E64E1C3774B659188349015CF7EB433B1146CF7C1CB5D29CBDA2D7FEEADCC743, ED2K: A197E276ADDACF2F4132F076C5669F64
Screenshots
screenshotscreenshotscreenshotscreenshotscreenshot
SubtitlesAll Attachments | Nii-sama [eng, ASS]
Additional Info
General
Unique ID                                : 295537909329809782867635274450762163333 (0xDE5687EAE58935787153FD0469FB6485)
Complete name                            : [Nii-sama] Manaria Friends - 06 [720p][HEVC][10bit][6BD25AF7].mkv
Format                                   : Matroska
Format version                           : Version 4
File size                                : 234 MiB
Duration                                 : 14 min 33 s
Overall bit rate                         : 2 251 kb/s
Movie name                               : [Nii-sama] Manaria Friends - 06 [720p]
Encoded date                             : UTC 2019-02-24 20:55:19
Writing application                      : mkvmerge v30.1.0 ('Forever And More') 64-bit
Writing library                          : libebml v1.3.6 + libmatroska v1.4.9
Attachments                              : BROADW_0.TTF / Impress_0.ttf / tt0586m_0.ttf

Video
ID                                       : 1
Format                                   : HEVC
Format/Info                              : High Efficiency Video Coding
Format profile                           : Main 10@L3.1@Main
Codec ID                                 : V_MPEGH/ISO/HEVC
Duration                                 : 14 min 33 s
Bit rate                                 : 2 119 kb/s
Width                                    : 1 280 pixels
Height                                   : 720 pixels
Display aspect ratio                     : 16:9
Frame rate mode                          : Constant
Frame rate                               : 23.976 (24000/1001) FPS
Color space                              : YUV
Chroma subsampling                       : 4:2:0
Bit depth                                : 10 bits
Bits/(Pixel*Frame)                       : 0.096
Stream size                              : 221 MiB (94%)
Writing library                          : x265 2.9+9-f74003e88622:[Windows][GCC 8.2.0][64 bit] 10bit
Encoding settings                        : cpuid=1111039 / frame-threads=16 / numa-pools=16 / wpp / no-pmode / no-pme / no-psnr / no-ssim / log-level=3 / input-csp=1 / input-res=1280x720 / interlace=0 / total-frames=0 / level-idc=0 / high-tier=1 / uhd-bd=0 / ref=5 / allow-non-conformance / no-repeat-headers / annexb / no-aud / no-hrd / info / hash=0 / no-temporal-layers / open-gop / min-keyint=24 / keyint=240 / gop-lookahead=0 / bframes=8 / b-adapt=2 / b-pyramid / bframe-bias=0 / rc-lookahead=60 / lookahead-slices=4 / scenecut=40 / radl=0 / no-intra-refresh / ctu=64 / min-cu-size=8 / no-rect / no-amp / max-tu-size=32 / tu-inter-depth=1 / tu-intra-depth=1 / limit-tu=0 / rdoq-level=0 / dynamic-rd=0.00 / no-ssim-rd / signhide / no-tskip / nr-intra=0 / nr-inter=0 / no-constrained-intra / strong-intra-smoothing / max-merge=2 / limit-refs=3 / no-limit-modes / me=3 / subme=5 / merange=92 / temporal-mvp / weightp / weightb / no-analyze-src-pics / deblock=-4:-4 / sao / no-sao-non-deblock / rd=3 / no-early-skip / rskip / no-fast-intra / no-tskip-fast / no-cu-lossless / no-b-intra / no-splitrd-skip / rdpenalty=0 / psy-rd=2.00 / psy-rdoq=0.00 / no-rd-refine / no-lossless / cbqpoffs=0 / crqpoffs=0 / rc=cqp / qp=15 / ipratio=1.40 / pbratio=1.30 / aq-mode=0 / aq-strength=0.00 / no-cutree / zone-count=0 / no-strict-cbr / qg-size=64 / no-rc-grain / qpmax=69 / qpmin=0 / no-const-vbv / sar=1 / overscan=0 / videoformat=5 / range=0 / colorprim=1 / transfer=1 / colormatrix=1 / chromaloc=0 / display-window=0 / max-cll=0,0 / min-luma=0 / max-luma=1023 / log2-max-poc-lsb=8 / vui-timing-info / vui-hrd-info / slices=1 / no-opt-qp-pps / no-opt-ref-list-length-pps / no-multi-pass-opt-rps / scenecut-bias=0.05 / no-opt-cu-delta-qp / no-aq-motion / no-hdr / no-hdr-opt / no-dhdr10-opt / no-idr-recovery-sei / analysis-reuse-level=5 / scale-factor=0 / refine-intra=0 / refine-inter=0 / refine-mv=0 / no-limit-sao / ctu-info=0 / no-lowpass-dct / refine-mv-type=0 / copy-pic=1 / max-ausize-factor=1.0 / no-dynamic-refine / no-single-sei
Language                                 : Japanese
Default                                  : Yes
Forced                                   : No
Color range                              : Limited
Color primaries                          : BT.709
Transfer characteristics                 : BT.709
Matrix coefficients                      : BT.709

Audio
ID                                       : 2
Format                                   : AAC LC
Format/Info                              : Advanced Audio Codec Low Complexity
Codec ID                                 : A_AAC-2
Duration                                 : 14 min 33 s
Bit rate                                 : 128 kb/s
Channel(s)                               : 2 channels
Channel layout                           : L R
Sampling rate                            : 44.1 kHz
Frame rate                               : 43.066 FPS (1024 SPF)
Compression mode                         : Lossy
Stream size                              : 13.3 MiB (6%)
Language                                 : Japanese
Default                                  : Yes
Forced                                   : No

Text
ID                                       : 3
Format                                   : ASS
Codec ID                                 : S_TEXT/ASS
Codec ID/Info                            : Advanced Sub Station Alpha
Duration                                 : 14 min 4 s
Bit rate                                 : 67 b/s
Count of elements                        : 141
Compression mode                         : Lossless
Stream size                              : 6.95 KiB (0%)
Title                                    : Nii-sama
Language                                 : English
Default                                  : Yes
Forced                                   : No

Menu
00:00:00.000                             : en: - Start / en:INDEX 01
00:01:03.640                             : en: - Part 1 / en:INDEX 01
00:09:31.933                             : en: - Part 2 / en:INDEX 01
00:10:51.080                             : en: - ED / en:INDEX 01
00:11:41.000                             : en: - ED Card / en:INDEX 01
00:11:46.000                             : en: - Part 3 / en:INDEX 01
beta
Anime DDL+NZB mirror
Current Time: 07/12/2019 22:34



About/FAQs