[Nii-sama] Kimi no Na wa. [1080p][HEVC][10bit][FLAC][BD][683a177e].mkv


File Size6.093 GB (6,541,835,079 bytes)
DownloadJheberg: Part1, Part2, Part3, Part4
MultiUp: Part1
  • BdUpload
  • DownAce
  • Fichier
  • FileCloud
  • Filerio
  • FilesCdn
  • IndiShare
  • Kbagi
  • Turbobit
  • UpToBox
  • Uppit
, Part2
  • BdUpload
  • DownAce
  • Fichier
  • FileCloud
  • Filerio
  • FilesCdn
  • IndiShare
  • Kbagi
  • Turbobit
  • UpToBox
  • Uppit
, Part3
  • BdUpload
  • DownAce
  • Fichier
  • FileCloud
  • Filerio
  • FilesCdn
  • IndiShare
  • Kbagi
  • Turbobit
  • UpToBox
  • Uppit
, Part4
  • BdUpload
  • DownAce
  • Fichier
  • FileCloud
  • Filerio
  • FilesCdn
  • IndiShare
  • Kbagi
  • Turbobit
  • UpToBox
  • Uppit
, Part5
  • BdUpload
  • DownAce
  • Fichier
  • FileCloud
  • Filerio
  • FilesCdn
  • IndiShare
  • Kbagi
  • Turbobit
  • UpToBox
  • Uppit
, Part6
  • BdUpload
  • DownAce
  • Fichier
  • FileCloud
  • Filerio
  • FilesCdn
  • IndiShare
  • Kbagi
  • Turbobit
  • UpToBox
  • Uppit
, Part7
  • BdUpload
  • DownAce
  • Fichier
  • FileCloud
  • Filerio
  • FilesCdn
  • IndiShare
  • Kbagi
  • Turbobit
  • UpToBox
  • Uppit
, Part8
  • BdUpload
  • DownAce
  • Fichier
  • FileCloud
  • Filerio
  • FilesCdn
  • IndiShare
  • Kbagi
  • Turbobit
  • UpToBox
  • Uppit
, Part9
  • BdUpload
  • DownAce
  • Fichier
  • FileCloud
  • Filerio
  • FilesCdn
  • IndiShare
  • Kbagi
  • Turbobit
  • UpToBox
  • Uppit
, Part10
  • BdUpload
  • DownAce
  • Fichier
  • FileCloud
  • Filerio
  • FilesCdn
  • IndiShare
  • Kbagi
  • Turbobit
  • UpToBox
  • Uppit
, Part11
  • BdUpload
  • DownAce
  • Fichier
  • FileCloud
  • Filerio
  • FilesCdn
  • IndiShare
  • Kbagi
  • Turbobit
  • UpToBox
  • Uppit
, Part12
  • BdUpload
  • DownAce
  • Fichier
  • FileCloud
  • Filerio
  • FilesCdn
  • IndiShare
  • Kbagi
  • Turbobit
  • UpToBox
  • Uppit
, Part13
  • BdUpload
  • DownAce
  • Fichier
  • FileCloud
  • Filerio
  • FilesCdn
  • IndiShare
  • Kbagi
  • Turbobit
  • UpToBox
  • Uppit

OpenLoad: Part1, Part2, Part3, Part4, Part5, Part6, Part7
Sendspace: Part1, Part2, Part3, Part4, Part5, Part6, Part7, Part8, Part9, Part10, Part11, Part12, Part13, Part14, Part15, Part16, Part17, Part18, Part19, Part20, Part21
SolidFiles: Part1, Part2, Part3, Part4, Part5, Part6, Part7, Part8, Part9, Part10, Part11, Part12, Part13
ZippyShare: Part1, Part2, Part3, Part4, Part5, Part6, Part7, Part8, Part9, Part10, Part11, Part12, Part13
HashesCRC32: 683A177E, MD5: 208D0ACAB94DC0F6D9E848E1AA79FECA, SHA1: 6F41BB60BCD7016290BF054DBB04CD1A0B5B1CA0, SHA256: AE30817651A3E518C03C60BBC2BA73843FC9A917D2601ED030F2B6986A8F79F7, ED2K: 89B0D124B1C5C00409FBE28F0CCD1E8E
Screenshots
screenshotscreenshotscreenshotscreenshotscreenshot
SubtitlesAll Attachments | Nii-sama [eng, ASS], Japanese BD [eng, PGS]
Additional Info
General
Unique ID                                : 255285953756268122331133324109505798810 (0xC00E49492045C2FEB69B68E3ADA2A29A)
Complete name                            : [Nii-sama] Kimi no Na wa. [1080p][HEVC][10bit][FLAC][BD][683a177e].mkv
Format                                   : Matroska
Format version                           : Version 4
File size                                : 6.09 GiB
Duration                                 : 1 h 46 min
Overall bit rate mode                    : Variable
Overall bit rate                         : 8 183 kb/s
Movie name                               : [Nii-sama] Kimi no Na wa. [1080p][HEVC][10bit][FLAC][BD]
Encoded date                             : UTC 2019-09-03 16:36:37
Writing application                      : mkvmerge v37.0.0 ('Leave It') 64-bit
Writing library                          : libebml v1.3.9 + libmatroska v1.5.2
Attachments                              : hapole_pencil.ttf / HoboStd_0.otf / Impress_0.ttf / INTERNATIONALPLAYBOY.TTF / Monoglyceride.ttf / Quadraat-Bold.otf / QuadraatSans-Caps.otf / rounded-x-mplus-2c-heavy.ttf / TWINPINE.TTF / ANDYB.TTF / AntiqueOliveStd-Roman.otf / arial.ttf / Bemio.otf / BettysHand Regular.ttf / blemished.ttf / boopee_regular.ttf / CaveatBrush-Regular.ttf / CrapBGSB (curved ends).otf / CrapBGSH (fat curved ends).otf / CrapFLTSB.otf / CrapGPPB (nice serif).otf / CrapQSB.otf / Dang (fat sans).otf / ElegantLux-Mager.ttf / ElegantLux-Mager_0.OTF / erasdust.ttf / GillSansCondNova.ttf / GraviolaSoft-Medium.otf

Video
ID                                       : 1
Format                                   : HEVC
Format/Info                              : High Efficiency Video Coding
Format profile                           : Main 10@L4@Main
Codec ID                                 : V_MPEGH/ISO/HEVC
Duration                                 : 1 h 46 min
Bit rate                                 : 5 003 kb/s
Width                                    : 1 920 pixels
Height                                   : 1 080 pixels
Display aspect ratio                     : 16:9
Frame rate mode                          : Constant
Frame rate                               : 23.976 (24000/1001) FPS
Color space                              : YUV
Chroma subsampling                       : 4:2:0
Bit depth                                : 10 bits
Bits/(Pixel*Frame)                       : 0.101
Stream size                              : 3.73 GiB (61%)
Title                                    : Kimi no Na wa. (2016)
Writing library                          : x265 2.9+9-f74003e88622:[Windows][GCC 8.2.0][64 bit] 10bit
Encoding settings                        : cpuid=1111039 / frame-threads=16 / numa-pools=16 / wpp / no-pmode / no-pme / no-psnr / no-ssim / log-level=3 / input-csp=1 / input-res=1920x1080 / interlace=0 / total-frames=0 / level-idc=0 / high-tier=1 / uhd-bd=0 / ref=5 / allow-non-conformance / no-repeat-headers / annexb / no-aud / no-hrd / info / hash=0 / no-temporal-layers / open-gop / min-keyint=24 / keyint=240 / gop-lookahead=0 / bframes=8 / b-adapt=2 / b-pyramid / bframe-bias=0 / rc-lookahead=60 / lookahead-slices=6 / scenecut=40 / radl=0 / no-intra-refresh / ctu=64 / min-cu-size=8 / no-rect / no-amp / max-tu-size=32 / tu-inter-depth=1 / tu-intra-depth=1 / limit-tu=0 / rdoq-level=0 / dynamic-rd=0.00 / no-ssim-rd / signhide / no-tskip / nr-intra=0 / nr-inter=0 / no-constrained-intra / strong-intra-smoothing / max-merge=2 / limit-refs=3 / no-limit-modes / me=3 / subme=5 / merange=92 / temporal-mvp / weightp / weightb / no-analyze-src-pics / deblock=-5:-5 / sao / no-sao-non-deblock / rd=3 / no-early-skip / rskip / no-fast-intra / no-tskip-fast / no-cu-lossless / no-b-intra / no-splitrd-skip / rdpenalty=0 / psy-rd=2.00 / psy-rdoq=0.00 / no-rd-refine / no-lossless / cbqpoffs=0 / crqpoffs=0 / rc=cqp / qp=15 / ipratio=1.40 / pbratio=1.30 / aq-mode=0 / aq-strength=0.00 / no-cutree / zone-count=0 / no-strict-cbr / qg-size=64 / no-rc-grain / qpmax=69 / qpmin=0 / no-const-vbv / sar=1 / overscan=0 / videoformat=5 / range=0 / colorprim=1 / transfer=1 / colormatrix=1 / chromaloc=0 / display-window=0 / max-cll=0,0 / min-luma=0 / max-luma=1023 / log2-max-poc-lsb=8 / vui-timing-info / vui-hrd-info / slices=1 / no-opt-qp-pps / no-opt-ref-list-length-pps / no-multi-pass-opt-rps / scenecut-bias=0.05 / no-opt-cu-delta-qp / no-aq-motion / no-hdr / no-hdr-opt / no-dhdr10-opt / no-idr-recovery-sei / analysis-reuse-level=5 / scale-factor=0 / refine-intra=0 / refine-inter=0 / refine-mv=0 / no-limit-sao / ctu-info=0 / no-lowpass-dct / refine-mv-type=0 / copy-pic=1 / max-ausize-factor=1.0 / no-dynamic-refine / no-single-sei
Language                                 : Japanese
Default                                  : Yes
Forced                                   : No
Color range                              : Limited
Color primaries                          : BT.709
Transfer characteristics                 : BT.709
Matrix coefficients                      : BT.709

Audio
ID                                       : 2
Format                                   : FLAC
Format/Info                              : Free Lossless Audio Codec
Codec ID                                 : A_FLAC
Duration                                 : 1 h 46 min
Bit rate mode                            : Variable
Bit rate                                 : 3 147 kb/s
Channel(s)                               : 6 channels
Channel layout                           : L R C LFE Ls Rs
Sampling rate                            : 48.0 kHz
Frame rate                               : 10.417 FPS (4608 SPF)
Bit depth                                : 24 bits
Compression mode                         : Lossless
Stream size                              : 2.34 GiB (38%)
Title                                    : Japanese 5.1 24bit
Language                                 : Japanese
Default                                  : Yes
Forced                                   : No

Text #1
ID                                       : 3
Format                                   : ASS
Codec ID                                 : S_TEXT/ASS
Codec ID/Info                            : Advanced Sub Station Alpha
Duration                                 : 1 h 46 min
Bit rate                                 : 4 442 b/s
Count of elements                        : 16013
Compression mode                         : Lossless
Stream size                              : 3.38 MiB (0%)
Title                                    : Nii-sama
Language                                 : English
Default                                  : Yes
Forced                                   : No

Text #2
ID                                       : 4
Format                                   : PGS
Muxing mode                              : zlib
Codec ID                                 : S_HDMV/PGS
Codec ID/Info                            : Picture based subtitle format used on BDs/HD-DVDs
Duration                                 : 1 h 45 min
Bit rate                                 : 40.6 kb/s
Count of elements                        : 3515
Stream size                              : 30.6 MiB (0%)
Title                                    : Japanese BD
Language                                 : English
Default                                  : No
Forced                                   : No

Menu
00:00:00.000                             : en: - Start / en:INDEX 01
00:01:49.280                             : en: - OP / en:INDEX 01
00:03:20.786                             : en: - Part 1 / en:INDEX 01
00:29:53.523                             : en: - Part 2
00:01:22.453                             : en:INDEX 01
01:38:42.850                             : en: - ED / en:INDEX 01
beta
Anime DDL+NZB mirror
Current Time: 05/12/2020 18:17



About/FAQs