[nielsen145] Naka no Hito Genome [Jikkyouchuu] - 06 (AT-X 1280x720 x264 AAC) [B3BF4A2D].mkv


File Size333.3 MB (349,493,714 bytes)
DownloadClickNUpload | Jheberg | MultiUp
  • BdUpload
  • DownAce
  • Fichier
  • FileCloud
  • Filerio
  • FilesCdn
  • IndiShare
  • Kbagi
  • Turbobit
  • UpToBox
  • Uppit
| OpenLoad | SolidFiles | ZippyShare
Sendspace: Part1, Part2
HashesCRC32: B3BF4A2D, MD5: CF4AF9B68E901796C333A1341DCDC6E5, SHA1: 0565E3A439AAE49253DB365DF354539132936702, SHA256: 9F48B7F54589B215338DE502511614D0EAD0F53F8A7BD017C1630BB963545D32, ED2K: 4E0220228418B73979F6B40B1C200300
Screenshots
screenshotscreenshotscreenshotscreenshotscreenshot
SubtitlesAll Attachments | eng [ASS]
Additional Info
General
Unique ID                                : 100523529588501333252169815011611056827 (0x4BA020A8C150EF51B5B28AC3062B1ABB)
Complete name                            : [nielsen145] Naka no Hito Genome [Jikkyouchuu] - 06 (AT-X 1280x720 x264 AAC) [B3BF4A2D].mkv
Format                                   : Matroska
Format version                           : Version 4
File size                                : 333 MiB
Duration                                 : 24 min 0 s
Overall bit rate                         : 1 941 kb/s
Encoded date                             : UTC 2019-08-11 16:52:08
Writing application                      : mkvmerge v23.0.0 ('The Bride Said No') 64-bit
Writing library                          : libebml v1.3.6 + libmatroska v1.4.9
Attachments                              : AurulentSans-Bold.otf

Video
ID                                       : 1
Format                                   : AVC
Format/Info                              : Advanced Video Codec
Format profile                           : Main@L4.1
Format settings                          : CABAC / 4 Ref Frames
Format settings, CABAC                   : Yes
Format settings, ReFrames                : 4 frames
Codec ID                                 : V_MPEG4/ISO/AVC
Duration                                 : 24 min 0 s
Bit rate                                 : 1 736 kb/s
Width                                    : 1 280 pixels
Height                                   : 720 pixels
Display aspect ratio                     : 16:9
Frame rate mode                          : Constant
Frame rate                               : 23.976 (24000/1001) FPS
Color space                              : YUV
Chroma subsampling                       : 4:2:0
Bit depth                                : 8 bits
Scan type                                : Progressive
Bits/(Pixel*Frame)                       : 0.079
Stream size                              : 298 MiB (89%)
Writing library                          : x264 core 158 r2984 [Ohys-Raws]
Encoding settings                        : cabac=1 / ref=3 / deblock=1:0:0 / analyse=0x1:0x111 / me=hex / subme=7 / psy=1 / psy_rd=1.00:0.00 / mixed_ref=1 / me_range=16 / chroma_me=1 / trellis=1 / 8x8dct=0 / cqm=0 / deadzone=21,11 / fast_pskip=1 / chroma_qp_offset=-2 / threads=22 / lookahead_threads=3 / sliced_threads=0 / nr=0 / decimate=1 / interlaced=0 / bluray_compat=0 / constrained_intra=0 / bframes=3 / b_pyramid=2 / b_adapt=1 / b_bias=0 / direct=1 / weightb=1 / open_gop=0 / weightp=2 / keyint=240 / keyint_min=1 / scenecut=40 / intra_refresh=0 / rc_lookahead=40 / rc=crf / mbtree=1 / crf=20.0 / qcomp=0.60 / qpmin=0 / qpmax=69 / qpstep=4 / ip_ratio=1.40 / aq=1:1.50
Default                                  : Yes
Forced                                   : No
Color range                              : Limited
Color primaries                          : BT.709
Transfer characteristics                 : BT.709
Matrix coefficients                      : BT.709

Audio
ID                                       : 2
Format                                   : AAC LC
Format/Info                              : Advanced Audio Codec Low Complexity
Codec ID                                 : A_AAC-2
Duration                                 : 24 min 0 s
Bit rate                                 : 203 kb/s
Channel(s)                               : 2 channels
Channel layout                           : L R
Sampling rate                            : 48.0 kHz
Frame rate                               : 46.875 FPS (1024 SPF)
Compression mode                         : Lossy
Stream size                              : 34.8 MiB (10%)
Language                                 : Japanese
Default                                  : Yes
Forced                                   : No

Text
ID                                       : 3
Format                                   : ASS
Codec ID                                 : S_TEXT/ASS
Codec ID/Info                            : Advanced Sub Station Alpha
Duration                                 : 22 min 2 s
Bit rate                                 : 104 b/s
Count of elements                        : 322
Compression mode                         : Lossless
Stream size                              : 16.9 KiB (0%)
Language                                 : English
Default                                  : Yes
Forced                                   : No
beta
Anime DDL+NZB mirror
Current Time: 03/08/2020 17:06



About/FAQs