File Size1.381 GB (1,483,008,873 bytes)
DownloadClickNUpload
DownloadGG: Part1, Part2
KrakenFiles: Part1, Part2
MultiUp: Part1
  • BdUpload
  • DownAce
  • Fichier
  • FileCloud
  • Filerio
  • FilesCdn
  • IndiShare
  • Kbagi
  • Turbobit
  • UpToBox
  • Uppit
, Part2
  • BdUpload
  • DownAce
  • Fichier
  • FileCloud
  • Filerio
  • FilesCdn
  • IndiShare
  • Kbagi
  • Turbobit
  • UpToBox
  • Uppit
, Part3
  • BdUpload
  • DownAce
  • Fichier
  • FileCloud
  • Filerio
  • FilesCdn
  • IndiShare
  • Kbagi
  • Turbobit
  • UpToBox
  • Uppit

ZippyShare: Part1, Part2, Part3
HashesCRC32: 02FB9D69, MD5: F47D5BE6F933F1026CC0FEB5DC68C29A, SHA1: 55B8AE88B53DF4DE2493E70636BC4779FD6099FE, SHA256: 91C108AC73FDB1A85F75663DF4EFDE4EB46C62231BC538555958A14FAA10EF5C, ED2K: 9757129B0D45896CB9CE51A013978767
Screenshots
screenshotscreenshotscreenshotscreenshotscreenshot
SubtitlesAll Attachments | Signs & Songs [eng, ASS], Full Subtitles [Anime Chap] [eng, ASS]
Additional Info
General
Unique ID                                : 246910976355778266389981991102599765547 (0xB9C153051286CC9DD0090CEC2A419E2B)
Complete name                            : [NH] Aharen-san wa Hakarenai - S01E05 (WEB 1080p x264 AAC) [02FB9D69].mkv
Format                                   : Matroska
Format version                           : Version 4
File size                                : 1.38 GiB
Duration                                 : 23 min 57 s
Overall bit rate                         : 8 256 kb/s
Encoded date                             : UTC 2022-05-13 21:21:59
Writing application                      : mkvmerge v67.0.0 ('Under Stars') 64-bit
Writing library                          : libebml v1.4.2 + libmatroska v1.6.4
Attachments                              : alessia.regular.otf / octarine.bold.otf / Pixeboy-z8XGD.ttf / snow-drop.regular.otf / TheLima-K7GXZ.otf

Video
ID                                       : 1
Format                                   : AVC
Format/Info                              : Advanced Video Codec
Format profile                           : High@L4
Format settings                          : CABAC / 4 Ref Frames
Format settings, CABAC                   : Yes
Format settings, Reference frames        : 4 frames
Codec ID                                 : V_MPEG4/ISO/AVC
Duration                                 : 23 min 57 s
Bit rate                                 : 8 000 kb/s
Width                                    : 1 920 pixels
Height                                   : 1 080 pixels
Display aspect ratio                     : 16:9
Frame rate mode                          : Constant
Frame rate                               : 23.976 (24000/1001) FPS
Color space                              : YUV
Chroma subsampling                       : 4:2:0
Bit depth                                : 8 bits
Scan type                                : Progressive
Bits/(Pixel*Frame)                       : 0.161
Stream size                              : 1.34 GiB (97%)
Title                                    : [SubsPlease]
Writing library                          : x264 core 142
Encoding settings                        : cabac=1 / ref=4 / deblock=1:1:1 / analyse=0x3:0x113 / me=umh / subme=8 / psy=1 / psy_rd=0.40:0.00 / mixed_ref=1 / me_range=16 / chroma_me=1 / trellis=1 / 8x8dct=1 / cqm=0 / deadzone=21,11 / fast_pskip=1 / chroma_qp_offset=-2 / threads=12 / lookahead_threads=2 / sliced_threads=0 / nr=0 / decimate=1 / interlaced=0 / bluray_compat=0 / constrained_intra=0 / bframes=0 / weightp=2 / keyint=96 / keyint_min=48 / scenecut=40 / intra_refresh=0 / rc_lookahead=48 / rc=2pass / mbtree=1 / bitrate=8000 / ratetol=1.0 / qcomp=0.60 / qpmin=0 / qpmax=69 / qpstep=4 / cplxblur=20.0 / qblur=0.5 / vbv_maxrate=12000 / vbv_bufsize=18000 / nal_hrd=none / filler=0 / ip_ratio=1.40 / aq=1:0.60
Language                                 : Japanese
Default                                  : Yes
Forced                                   : No

Audio #1
ID                                       : 2
Format                                   : AAC LC
Format/Info                              : Advanced Audio Codec Low Complexity
Codec ID                                 : A_AAC-2
Duration                                 : 23 min 56 s
Bit rate                                 : 128 kb/s
Channel(s)                               : 2 channels
Channel layout                           : L R
Sampling rate                            : 44.1 kHz
Frame rate                               : 43.066 FPS (1024 SPF)
Compression mode                         : Lossy
Stream size                              : 21.9 MiB (2%)
Title                                    : English 2.0 AAC
Language                                 : English
Default                                  : Yes
Forced                                   : No

Audio #2
ID                                       : 3
Format                                   : AAC LC
Format/Info                              : Advanced Audio Codec Low Complexity
Codec ID                                 : A_AAC-2
Duration                                 : 23 min 57 s
Bit rate                                 : 128 kb/s
Channel(s)                               : 2 channels
Channel layout                           : L R
Sampling rate                            : 44.1 kHz
Frame rate                               : 43.066 FPS (1024 SPF)
Compression mode                         : Lossy
Stream size                              : 21.9 MiB (2%)
Title                                    : Japanese 2.0 AAC
Language                                 : Japanese
Default                                  : No
Forced                                   : No

Text #1
ID                                       : 4
Format                                   : ASS
Codec ID                                 : S_TEXT/ASS
Codec ID/Info                            : Advanced Sub Station Alpha
Duration                                 : 23 min 12 s
Bit rate                                 : 71 b/s
Count of elements                        : 148
Compression mode                         : Lossless
Stream size                              : 12.2 KiB (0%)
Title                                    : Signs & Songs
Language                                 : English
Default                                  : Yes
Forced                                   : Yes

Text #2
ID                                       : 5
Format                                   : ASS
Codec ID                                 : S_TEXT/ASS
Codec ID/Info                            : Advanced Sub Station Alpha
Duration                                 : 23 min 55 s
Bit rate                                 : 150 b/s
Count of elements                        : 404
Compression mode                         : Lossless
Stream size                              : 26.3 KiB (0%)
Title                                    : Full Subtitles [Anime Chap]
Language                                 : English
Default                                  : No
Forced                                   : No

Menu
00:00:00.000                             : :Episode 5: Isn't That a Little Too Heavy? - Part A
00:00:53.000                             : :OP
00:02:23.000                             : :Episode 5: Isn't That a Little Too Heavy? - Part B
00:10:37.000                             : :Episode 5: Isn't That a Little Too Heavy? - Part C
00:22:11.000                             : :ED
00:23:41.000                             : :Episode 5: Isn't That a Little Too Heavy? - Part D
beta
Anime DDL+NZB mirror
Current Time: 06/07/2022 13:39



About/FAQs

Discord